osu file format v14

[General]
AudioFilename: TwoThirds & Feint feat. Veela - Epiphany.mp3
AudioLeadIn: 1500
PreviewTime: 307410
Countdown: 0
SampleSet: Soft
StackLeniency: 0.7
Mode: 0
LetterboxInBreaks: 1
WidescreenStoryboard: 1

[Editor]
Bookmarks: 142838,153810,164781,269010,285467,301924,318381,329352,340324,351295,362267,373238,384210,395181,417124
DistanceSpacing: 0.7
BeatDivisor: 4
GridSize: 32
TimelineZoom: 1.5

[Metadata]
Title:Epiphany (feat. Veela)
TitleUnicode:Epiphany (feat. Veela)
Artist:TwoThirds & Feint
ArtistUnicode:TwoThirds & Feint
Creator:Aiceo
Version:Revelation
Source:
Tags:A Mystery Hula marathon drum and bass dnb vocal full version collab best map VINXIS
BeatmapID:687303
BeatmapSetID:307163

[Difficulty]
HPDrainRate:6
CircleSize:4
OverallDifficulty:9
ApproachRate:9
SliderMultiplier:2
SliderTickRate:1

[Events]
//Background and Video events
0,0,"fed__up_by_nanomortis-d87z2tg.jpg",0,0
//Break Periods
2,219842,241016
//Storyboard Layer 0 (Background)
//Storyboard Layer 1 (Fail)
//Storyboard Layer 2 (Pass)
//Storyboard Layer 3 (Foreground)
//Storyboard Sound Samples

[TimingPoints]
215,342.857142857143,4,2,1,100,1,0
22157,-100,4,2,1,60,0,0
44100,-100,4,2,1,70,0,1
44186,-100,4,2,1,70,0,0
66043,-100,4,2,1,70,0,1
66129,-100,4,2,1,70,0,0
87986,-100,4,2,1,90,0,0
88329,-153.846153846154,4,2,5,35,0,0
109586,-111.111111111111,4,2,5,35,0,0
109757,-111.111111111111,4,2,5,45,0,0
109929,-153.846153846154,4,2,5,55,0,0
110272,-153.846153846154,4,2,5,40,0,0
121243,-153.846153846154,4,2,5,45,0,0
123986,-153.846153846154,4,2,5,47,0,0
126729,-153.846153846154,4,2,5,49,0,0
131872,-90.9090909090909,4,2,1,75,0,1
153129,-90.9090909090909,4,2,1,80,0,1
153815,-90.9090909090909,4,2,1,75,0,1
175757,-100,4,2,1,80,0,0
175929,-100,4,2,1,70,0,0
197700,-100,4,2,1,70,0,1
197786,-100,4,2,1,70,0,0
241586,-133.333333333333,4,2,2,40,0,0
263529,-111.111111111111,4,2,2,75,0,0
263872,-111.111111111111,4,2,2,60,0,0
265929,-111.111111111111,4,2,1,70,0,0
266615,-111.111111111111,4,2,2,60,0,0
268672,-111.111111111111,4,2,1,70,0,0
269357,-111.111111111111,4,2,2,60,0,0
271415,-111.111111111111,4,2,1,70,0,0
272100,-111.111111111111,4,2,2,60,0,0
274157,-111.111111111111,4,2,1,69,0,0
274843,-111.111111111111,4,2,2,60,0,0
276900,-111.111111111111,4,2,1,70,0,0
277586,-111.111111111111,4,2,2,60,0,0
279643,-111.111111111111,4,2,1,70,0,0
280329,-111.111111111111,4,2,2,60,0,0
282386,-111.111111111111,4,2,1,70,0,0
283072,-111.111111111111,4,2,2,60,0,0
285129,-111.111111111111,4,2,1,70,0,0
285472,-111.111111111111,4,2,1,61,0,0
301929,-111.111111111111,4,2,1,63,0,0
306557,-111.111111111111,4,2,2,63,0,0
307415,-80,4,2,1,80,0,1
328672,-80,4,2,1,85,0,1
329357,-80,4,2,1,80,0,1
350615,-80,4,2,1,90,0,1
351300,-80,4,2,1,85,0,1
372557,-80,4,2,1,90,0,1
373243,-80,4,2,1,85,0,1
395186,-100,4,2,1,63,0,0
417129,-100,4,2,1,83,0,0

[Colours]
Combo1 : 244,115,36
Combo2 : 156,61,106
Combo3 : 217,89,92

[HitObjects]
348,252,21815,5,0,0:0:0:0:
348,252,21900,1,0,0:0:0:0:
348,252,21986,1,0,0:0:0:0:
348,252,22072,1,0,0:0:0:0:
348,252,22157,5,2,1:2:0:0:
264,166,22329,1,0,0:0:0:0:
427,254,22501,1,8,0:2:0:0:
345,367,22672,1,0,0:0:0:0:
345,367,22758,1,0,0:0:0:0:
345,367,22844,1,0,0:0:0:0:
266,253,23015,1,0,1:0:0:0:
432,168,23187,1,8,0:2:0:0:
311,101,23357,1,0,0:0:0:0:
311,101,23444,1,0,0:0:0:0:
311,101,23529,6,0,B|272:77|222:86|195:119,1,100,0|0,0:0|1:0,0:0:0:0:
96,208,23872,2,0,B|62:236|12:228|-12:191,1,100,8|0,0:2|0:0,0:0:0:0:
116,309,24215,1,0,0:0:0:0:
151,146,24387,1,0,1:0:0:0:
308,188,24558,1,8,0:2:0:0:
336,183,24643,1,0,0:0:0:0:
361,170,24729,1,0,0:0:0:0:
381,151,24815,1,0,0:0:0:0:
394,126,24901,6,0,B|411:89|406:48|386:17,1,100,2|0,1:2|0:0,0:0:0:0:
308,188,25244,2,0,B|291:226|297:268|319:300,1,100,8|0,0:2|0:0,0:0:0:0:
310,284,25501,1,0,0:0:0:0:
310,284,25587,1,0,0:0:0:0:
230,202,25758,1,0,1:0:0:0:
432,234,25929,1,8,0:2:0:0:
356,357,26101,1,0,0:0:0:0:
356,357,26187,1,0,0:0:0:0:
356,357,26272,6,0,B|325:380|283:379|252:356|238:326,1,100,0|0,0:0|1:0,0:0:0:0:
134,201,26615,2,0,B|165:184|201:186|230:202,1,100,8|0,0:2|0:0,0:0:0:0:
149,319,26957,1,0,0:0:0:0:
59,226,27129,1,0,0:0:0:0:
259,281,27301,1,8,2:0:0:0:
284,270,27386,1,0,0:0:0:0:
304,250,27472,1,0,0:0:0:0:
314,224,27558,1,0,0:0:0:0:
315,196,27643,5,2,1:2:0:0:
390,283,27815,1,0,0:0:0:0:
229,201,27987,1,8,0:2:0:0:
227,33,28158,1,0,0:0:0:0:
227,33,28244,1,0,0:0:0:0:
227,33,28329,2,0,B|185:16|140:23|105:46,1,100,0|0,0:0|1:0,0:0:0:0:
33,200,28672,1,8,0:2:0:0:
179,134,28844,1,0,0:0:0:0:
179,134,28929,1,0,0:0:0:0:
179,134,29015,6,0,B|225:110|278:121|311:155,1,100,0|0,0:0|1:0,0:0:0:0:
450,236,29358,1,8,0:2:0:0:
481,136,29529,1,0,0:0:0:0:
357,261,29701,1,0,0:0:0:0:
507,314,29872,1,0,1:0:0:0:
481,136,30044,1,8,0:2:0:0:
470,110,30129,1,0,0:0:0:0:
452,88,30215,1,0,0:0:0:0:
430,72,30301,1,0,0:0:0:0:
402,64,30387,6,0,L|291:55,1,100,2|0,1:2|0:0,0:0:0:0:
171,189,30729,2,0,B|199:224|250:227|282:196,1,100,8|0,0:0|0:0,0:0:0:0:
261,210,30987,1,0,0:0:0:0:
261,210,31072,1,0,0:0:0:0:
258,351,31244,1,0,1:0:0:0:
171,189,31415,1,8,0:0:0:0:
364,248,31587,1,0,0:0:0:0:
364,248,31672,1,0,0:0:0:0:
364,248,31758,6,0,L|489:230,1,100,0|0,0:2|1:0,0:0:0:0:
327,85,32101,1,8,0:2:0:0:
469,116,32272,1,0,0:0:0:0:
333,173,32444,1,0,0:0:0:0:
321,3,32615,1,0,1:0:0:0:
172,103,32787,1,8,0:2:0:0:
146,113,32872,1,0,0:0:0:0:
118,113,32958,1,0,0:0:0:0:
92,103,33044,1,0,0:0:0:0:
70,85,33129,6,0,L|59:203,1,100,2|0,1:2|0:0,0:0:0:0:
1,357,33472,1,8,0:2:0:0:
115,265,33644,1,0,0:0:0:0:
115,265,33729,1,0,0:0:0:0:
115,265,33815,1,0,0:0:0:0:
182,371,33987,1,0,1:0:0:0:
217,174,34158,1,8,2:0:0:0:
344,250,34329,1,0,0:0:0:0:
344,250,34415,1,0,0:0:0:0:
344,250,34501,6,0,B|388:265|433:258|469:236,1,100,0|0,0:0|1:0,0:0:0:0:
280,369,34844,2,0,B|239:356|197:361|163:379,1,100,8|0,0:2|0:0,0:0:0:0:
203,149,35187,1,0,0:0:0:0:
100,245,35358,1,0,1:0:0:0:
72,82,35529,1,8,0:2:0:0:
93,63,35614,1,0,0:0:0:0:
118,51,35700,1,0,0:0:0:0:
146,48,35786,1,0,0:0:0:0:
174,52,35872,6,0,B|218:73|268:62|301:32,1,100,2|0,1:2|0:0,0:0:0:0:
445,0,36215,1,8,0:2:0:0:
391,115,36387,1,0,0:0:0:0:
391,115,36472,1,0,0:0:0:0:
391,115,36558,1,0,0:0:0:0:
497,160,36729,1,0,1:0:0:0:
423,337,36901,1,8,0:2:0:0:
345,195,37072,1,0,0:0:0:0:
345,195,37158,1,0,0:0:0:0:
345,195,37244,6,0,B|304:174|258:179|224:204,1,100,0|0,0:0|1:0,0:0:0:0:
161,357,37587,1,8,0:2:0:0:
292,269,37758,1,0,0:0:0:0:
163,252,37929,1,0,0:0:0:0:
165,118,38101,1,0,1:0:0:0:
33,10,38272,1,8,0:2:0:0:
29,38,38357,1,0,0:0:0:0:
27,66,38443,1,0,0:0:0:0:
24,94,38529,1,0,0:0:0:0:
22,122,38615,5,2,0:2:0:0:
167,39,38786,1,0,0:0:0:0:
318,161,38958,1,8,0:2:0:0:
418,58,39129,1,0,0:0:0:0:
418,58,39215,1,0,0:0:0:0:
418,58,39301,1,0,0:0:0:0:
512,162,39472,1,0,1:0:0:0:
421,327,39644,1,8,0:2:0:0:
419,206,39815,1,0,0:0:0:0:
419,206,39901,1,0,0:0:0:0:
419,206,39987,5,0,0:0:0:0:
325,315,40158,1,0,1:0:0:0:
141,346,40329,2,0,B|95:351|55:319|49:275,1,100,8|0,0:2|0:0,0:0:0:0:
210,186,40672,2,0,B|232:144|223:95|194:63,1,100,0|0,0:0|1:0,0:0:0:0:
120,178,41015,1,8,0:2:0:0:
123,206,41100,1,0,0:0:0:0:
134,232,41186,1,0,0:0:0:0:
153,253,41272,1,0,0:0:0:0:
177,267,41357,5,2,1:2:0:0:
292,183,41529,1,0,0:0:0:0:
264,368,41701,1,8,0:2:0:0:
395,295,41872,1,0,0:0:0:0:
395,295,41958,1,0,0:0:0:0:
395,295,42044,2,0,L|512:280,1,100,0|0,0:0|1:0,0:0:0:0:
512,86,42387,2,0,L|395:102,1,100,8|0,0:2|0:0,0:0:0:0:
412,99,42644,1,0,0:0:0:0:
412,99,42729,5,2,0:2:0:0:
292,183,42901,1,0,1:0:0:0:
228,5,43072,1,8,0:2:0:0:
333,112,43244,1,0,0:0:0:0:
214,160,43415,1,0,0:0:0:0:
143,296,43587,1,0,1:0:0:0:
82,155,43758,1,8,0:2:0:0:
75,197,43843,1,0,0:0:0:0:
67,238,43929,1,0,0:0:0:0:
59,280,44015,1,0,0:0:0:0:
52,321,44100,5,4,1:3:0:0:
199,357,44272,1,0,0:0:0:0:
292,183,44443,1,8,0:2:0:0:
329,344,44615,1,0,0:0:0:0:
329,344,44700,1,0,0:0:0:0:
329,344,44786,1,0,0:0:0:0:
211,178,44957,1,0,1:0:0:0:
125,352,45129,1,8,0:2:0:0:
304,266,45300,1,0,0:0:0:0:
304,266,45386,1,0,0:0:0:0:
304,266,45472,6,0,B|343:251|386:269|405:303,1,100,0|0,0:0|1:0,0:0:0:0:
198,328,45815,2,0,B|179:272|179:215,1,100,8|0,0:2|0:0,0:0:0:0:
336,74,46157,2,0,B|333:125|317:171,1,100,0|0,0:0|1:0,0:0:0:0:
169,84,46500,1,8,0:2:0:0:
124,61,46585,1,0,0:0:0:0:
75,64,46671,1,0,0:0:0:0:
33,91,46757,1,0,0:0:0:0:
11,135,46842,5,2,1:2:0:0:
155,274,47015,2,0,B|190:299|236:290|261:258,1,100,0|8,0:0|0:2,0:0:0:0:
329,133,47357,1,0,0:0:0:0:
333,129,47443,1,0,0:0:0:0:
336,126,47529,2,0,B|301:101|255:110|230:142,1,100,0|0,0:0|1:0,0:0:0:0:
373,222,47872,1,8,0:2:0:0:
283,74,48043,1,0,0:0:0:0:
283,74,48129,1,0,0:0:0:0:
283,74,48215,5,0,0:0:0:0:
209,273,48386,1,0,1:0:0:0:
339,134,48557,2,0,B|379:116|424:131|448:165,1,100,8|0,0:2|0:0,0:0:0:0:
303,287,48900,2,0,B|263:305|218:290|194:256,1,100,0|0,0:0|1:0,0:0:0:0:
110,133,49243,1,8,0:2:0:0:
132,93,49328,1,0,0:0:0:0:
169,59,49414,1,0,0:0:0:0:
217,48,49500,1,0,0:0:0:0:
264,63,49585,5,2,1:2:0:0:
104,27,49757,1,0,0:0:0:0:
271,189,49929,1,8,0:2:0:0:
115,136,50100,1,0,0:0:0:0:
110,133,50185,1,0,0:0:0:0:
106,130,50271,1,0,0:0:0:0:
337,116,50443,1,0,1:0:0:0:
183,245,50615,2,0,B|149:276|98:275|66:246,1,100,8|0,0:2|0:0,0:0:0:0:
86,257,50872,1,0,0:0:0:0:
83,254,50957,5,0,0:0:0:0:
231,328,51129,1,0,1:0:0:0:
143,154,51300,2,0,B|133:119|146:84|172:63,1,100,8|0,0:2|0:0,0:0:0:0:
257,212,51643,1,0,0:0:0:0:
109,86,51815,1,0,1:0:0:0:
188,277,51986,1,8,0:2:0:0:
227,305,52071,1,0,0:0:0:0:
277,307,52157,1,0,0:0:0:0:
321,283,52243,1,0,0:0:0:0:
346,241,52329,5,2,1:2:0:0:
282,93,52500,1,0,0:0:0:0:
109,227,52672,2,0,B|89:260|92:300|112:329,1,100,8|0,0:2|0:0,0:0:0:0:
134,361,52929,1,0,0:0:0:0:
176,380,53015,1,0,0:0:0:0:
257,212,53186,1,0,1:0:0:0:
148,69,53357,2,0,B|108:61|70:73|42:98,1,100,8|0,0:2|0:0,0:0:0:0:
52,89,53615,1,0,0:0:0:0:
52,89,53700,5,0,0:0:0:0:
183,220,53872,1,0,1:0:0:0:
398,190,54043,2,0,B|422:157|418:113|392:85,1,100,8|0,0:2|0:0,0:0:0:0:
240,174,54386,2,0,B|216:207|220:251|246:279,1,100,0|0,0:0|1:0,0:0:0:0:
335,111,54729,1,8,0:2:0:0:
303,73,54814,1,0,0:0:0:0:
257,54,54900,1,0,0:0:0:0:
208,58,54986,1,0,0:0:0:0:
166,85,55071,5,2,1:2:0:0:
305,220,55243,1,0,0:0:0:0:
351,8,55415,1,8,0:2:0:0:
239,155,55586,1,0,0:0:0:0:
236,158,55672,1,0,0:0:0:0:
232,162,55757,2,0,B|203:194|157:198|123:176,1,100,0|0,0:0|1:0,0:0:0:0:
14,85,56100,1,8,0:2:0:0:
84,229,56272,1,0,0:0:0:0:
84,229,56357,1,0,0:0:0:0:
84,229,56443,6,0,B|105:266|91:312|54:331,1,100,0|0,0:0|1:0,0:0:0:0:
270,291,56786,2,0,B|332:296|392:307,1,100,8|0,0:2|0:0,0:0:0:0:
419,150,57129,2,0,B|357:155|297:166,1,100,0|0,0:0|1:0,0:0:0:0:
128,171,57472,1,8,0:2:0:0:
79,159,57557,1,0,0:0:0:0:
44,125,57643,1,0,0:0:0:0:
33,77,57729,1,0,0:0:0:0:
48,30,57814,5,2,1:2:0:0:
228,130,57986,2,0,B|241:170|234:211|213:243,1,100,0|8,0:0|0:2,0:0:0:0:
134,83,58329,1,0,0:0:0:0:
134,83,58415,1,0,0:0:0:0:
134,83,58500,2,0,B|152:38|202:18|245:33,1,100,0|0,0:0|1:0,0:0:0:0:
226,230,58843,1,8,0:2:0:0:
68,200,59015,1,0,0:0:0:0:
65,197,59100,1,0,0:0:0:0:
62,194,59186,6,0,B|32:159|37:107|70:78,1,100,0|0,0:0|1:0,0:0:0:0:
226,230,59529,2,0,B|242:261|237:297|216:323,1,100,8|0,0:2|0:0,0:0:0:0:
136,143,59872,2,0,B|165:108|211:97|250:111,1,100,0|0,0:0|1:0,0:0:0:0:
367,244,60215,1,8,0:2:0:0:
410,267,60300,1,0,0:0:0:0:
459,263,60386,1,0,0:0:0:0:
498,233,60472,1,0,0:0:0:0:
512,186,60557,6,0,B|514:147|486:114|450:108,1,100,2|0,1:2|0:0,0:0:0:0:
255,217,60900,2,0,B|254:286|276:349,1,100,8|0,0:2|0:0,0:0:0:0:
266,316,61157,1,0,0:0:0:0:
266,316,61243,1,0,0:0:0:0:
160,163,61415,1,0,1:0:0:0:
339,275,61586,2,0,B|378:292|422:277|444:244,1,100,8|0,0:2|0:0,0:0:0:0:
459,222,61843,1,0,0:0:0:0:
475,179,61929,5,0,0:0:0:0:
291,95,62100,1,0,1:0:0:0:
339,275,62272,1,8,0:2:0:0:
396,126,62443,2,0,B|412:91|403:51|378:25,1,100,0|0,0:0|0:0,0:0:0:0:
250,213,62786,1,0,1:0:0:0:
459,222,62957,1,8,0:2:0:0:
495,188,63042,1,0,0:0:0:0:
512,141,63128,1,0,0:0:0:0:
506,92,63214,1,0,0:0:0:0:
480,50,63300,6,0,B|444:27|398:33|369:59,1,100,2|0,1:2|0:0,0:0:0:0:
262,150,63643,2,0,B|225:173|180:168|150:141,1,100,10|0,0:2|0:0,0:0:0:0:
133,125,63900,1,0,0:0:0:0:
109,90,63986,1,2,0:2:0:0:
213,285,64157,1,0,1:0:0:0:
212,81,64329,1,10,0:2:0:0:
131,261,64500,1,0,0:0:0:0:
128,264,64586,1,0,0:0:0:0:
125,267,64672,6,0,B|103:300|104:339|122:370,1,100,2|0,0:2|1:0,0:0:0:0:
286,259,65015,2,0,B|300:226|296:191|278:163,1,100,10|0,0:2|0:0,0:0:0:0:
87,94,65357,2,0,B|78:132|92:169|119:192,1,100,2|0,0:2|1:0,0:0:0:0:
338,204,65700,1,8,0:2:0:0:
387,199,65785,1,0,0:0:0:0:
426,169,65871,1,0,0:0:0:0:
445,124,65957,1,0,0:0:0:0:
438,75,66042,5,6,1:2:0:0:
284,121,66215,1,0,0:0:0:0:
328,321,66386,1,8,0:2:0:0:
198,175,66557,1,0,0:0:0:0:
195,171,66643,1,0,0:0:0:0:
193,168,66729,2,0,B|166:131|174:81|208:53,1,100,0|0,0:0|1:0,0:0:0:0:
338,204,67072,1,8,0:2:0:0:
213,318,67243,1,0,0:0:0:0:
210,321,67329,1,0,0:0:0:0:
207,324,67415,5,0,0:0:0:0:
284,121,67586,1,0,1:0:0:0:
344,291,67757,2,0,B|361:322|355:359|332:384,1,100,8|0,0:2|0:0,0:0:0:0:
457,237,68100,2,0,B|433:211|429:174|445:145,1,100,0|0,0:0|1:0,0:0:0:0:
304,50,68443,1,8,0:2:0:0:
271,87,68528,1,0,0:0:0:0:
224,103,68614,1,0,0:0:0:0:
175,95,68700,1,0,0:0:0:0:
137,64,68785,5,2,1:2:0:0:
38,190,68957,2,0,B|26:229|40:269|68:293,1,100,0|8,0:0|0:2,0:0:0:0:
202,208,69300,1,0,0:0:0:0:
202,208,69386,1,0,0:0:0:0:
202,208,69472,1,0,0:0:0:0:
17,101,69643,1,0,1:0:0:0:
136,259,69815,1,8,0:2:0:0:
211,118,69986,1,0,0:0:0:0:
214,115,70072,1,0,0:0:0:0:
217,112,70157,6,0,B|254:90|300:102|324:134,1,100,0|0,0:0|1:0,0:0:0:0:
389,253,70500,2,0,B|362:276|324:278|296:261,1,100,8|0,0:2|0:0,0:0:0:0:
476,187,70843,2,0,B|507:217|509:264|485:296,1,100,0|0,0:0|1:0,0:0:0:0:
320,164,71186,1,8,0:2:0:0:
303,117,71271,1,0,0:0:0:0:
312,69,71357,1,0,0:0:0:0:
345,32,71443,1,0,0:0:0:0:
392,16,71529,6,0,B|449:32|507:26,1,100,2|0,1:2|0:0,0:0:0:0:
378,233,71872,2,0,B|321:249|263:243,1,100,8|0,0:2|0:0,0:0:0:0:
237,237,72129,1,0,0:0:0:0:
197,219,72215,1,0,0:0:0:0:
386,99,72386,1,0,1:0:0:0:
332,287,72557,1,8,0:2:0:0:
208,147,72729,1,0,0:0:0:0:
208,147,72815,1,0,0:0:0:0:
208,147,72900,1,0,0:0:0:0:
408,226,73072,5,0,1:0:0:0:
229,329,73243,2,0,B|189:350|142:341|112:312,1,100,8|0,0:2|0:0,0:0:0:0:
262,180,73586,2,0,B|302:159|349:168|379:197,1,100,0|0,0:0|1:0,0:0:0:0:
166,255,73929,1,8,0:2:0:0:
136,215,74014,1,0,0:0:0:0:
128,166,74100,1,0,0:0:0:0:
145,119,74186,1,0,0:0:0:0:
180,85,74272,6,0,B|221:103|265:97|299:75,1,100,2|0,1:2|0:0,0:0:0:0:
452,34,74615,2,0,B|481:66|482:113|459:145,1,100,10|0,0:2|0:0,0:0:0:0:
444,162,74872,1,0,0:0:0:0:
418,194,74957,2,0,B|404:227|411:263|434:287,1,100,2|0,0:2|1:0,0:0:0:0:
285,178,75300,2,0,B|253:149|206:148|174:171,1,100,10|0,0:2|0:0,0:0:0:0:
157,186,75557,1,0,0:0:0:0:
125,212,75643,6,0,B|92:227|55:217|32:193,1,100,2|0,0:2|1:0,0:0:0:0:
227,245,75986,2,0,B|244:286|227:332|190:353,1,100,10|0,0:2|0:2,0:0:0:0:
97,133,76329,2,0,B|80:92|97:46|134:25,1,100,2|0,0:2|1:0,0:0:0:0:
187,221,76672,1,8,0:2:0:0:
147,250,76757,1,0,0:0:0:0:
98,261,76843,1,0,0:0:0:0:
50,249,76929,1,0,0:0:0:0:
11,219,77014,5,2,1:2:0:0:
87,360,77186,1,0,0:0:0:0:
137,157,77357,1,8,0:2:0:0:
32,291,77529,1,0,0:0:0:0:
32,291,77615,1,0,0:0:0:0:
32,291,77700,1,0,0:0:0:0:
254,266,77872,1,0,1:0:0:0:
65,172,78043,2,0,B|36:135|43:83|77:53,1,100,8|0,0:2|0:0,0:0:0:0:
60,74,78300,1,0,0:0:0:0:
63,71,78386,5,0,0:0:0:0:
292,158,78557,1,0,1:0:0:0:
222,302,78729,2,0,B|186:319|145:311|119:286,1,100,8|0,0:2|0:0,0:0:0:0:
197,148,79072,2,0,B|233:131|274:139|300:164,1,100,0|0,0:0|1:0,0:0:0:0:
140,245,79415,1,8,0:2:0:0:
101,213,79500,1,0,0:0:0:0:
82,168,79586,1,0,0:0:0:0:
87,119,79672,1,0,0:0:0:0:
115,78,79757,5,2,1:2:0:0:
28,213,79929,1,0,0:0:0:0:
197,148,80100,2,0,B|231:128|273:134|299:159,1,100,10|0,0:2|0:0,0:0:0:0:
322,183,80357,1,0,0:0:0:0:
355,213,80443,2,0,B|384:234|420:234|448:217,1,100,2|0,0:0|1:0,0:0:0:0:
404,25,80786,2,0,B|373:7|336:10|309:29,1,100,10|0,0:2|0:0,0:0:0:0:
274,61,81043,1,0,0:0:0:0:
244,94,81129,6,0,B|215:115|178:115|150:98,1,100,2|0,0:2|1:0,0:0:0:0:
18,7,81472,2,0,B|18:62|2:113,1,100,10|0,0:2|0:0,0:0:0:0:
95,264,81815,2,0,B|80:215|81:165,1,100,2|0,0:2|1:0,0:0:0:0:
277,37,82157,1,8,0:2:0:0:
325,28,82242,1,0,0:0:0:0:
371,45,82328,1,0,0:0:0:0:
403,83,82414,1,0,0:0:0:0:
410,132,82500,5,2,1:2:0:0:
396,292,82672,1,0,0:0:0:0:
317,121,82843,1,8,0:2:0:0:
253,268,83015,1,0,0:0:0:0:
250,271,83100,1,0,0:0:0:0:
247,274,83186,1,0,0:0:0:0:
456,198,83357,1,0,1:0:0:0:
264,178,83529,2,0,B|221:170|180:195|166:234,1,100,8|0,0:2|0:0,0:0:0:0:
173,217,83786,1,0,0:0:0:0:
170,220,83872,5,0,0:0:0:0:
357,242,84043,1,0,1:0:0:0:
205,117,84215,2,0,B|183:85|188:44|211:18,1,100,8|0,0:2|0:0,0:0:0:0:
359,148,84557,2,0,B|381:180|376:221|353:247,1,100,0|0,0:0|1:0,0:0:0:0:
197,342,84901,1,8,0:2:0:0:
147,344,84986,1,0,0:0:0:0:
104,319,85072,1,0,0:0:0:0:
81,275,85158,1,0,0:0:0:0:
85,226,85243,5,2,1:2:0:0:
189,104,85415,1,0,0:0:0:0:
310,273,85586,1,8,0:2:0:0:
160,180,85757,1,0,0:0:0:0:
160,180,85843,1,0,0:0:0:0:
160,180,85929,1,0,0:0:0:0:
390,200,86100,1,0,1:0:0:0:
199,272,86272,2,0,B|181:304|182:341|199:371,1,100,8|0,0:2|0:0,0:0:0:0:
197,367,86529,1,0,0:0:0:0:
197,367,86615,5,0,0:0:0:0:
322,221,86786,1,0,1:0:0:0:
203,114,86957,2,0,B|173:91|133:93|106:115,1,100,8|0,0:2|0:0,0:0:0:0:
272,284,87300,2,0,B|302:307|342:305|369:283,1,100,0|0,0:0|1:0,0:0:0:0:
161,189,87643,1,8,0:2:0:0:
129,226,87728,1,0,0:0:0:0:
122,275,87814,1,0,0:0:0:0:
142,320,87900,1,0,0:0:0:0:
183,347,87985,5,4,1:2:0:0:
386,98,88329,6,0,B|391:139|388:179,1,64.9999970245363,2|0,0:2|0:0,0:0:0:0:
317,208,88672,2,0,B|288:166|230:159|191:191,1,129.999994049073,0|0,0:0|0:0,0:0:0:0:
248,254,89186,2,0,B|256:284|251:315|236:339,1,64.9999970245363,2|0,0:0|0:0,0:0:0:0:
166,347,89529,2,0,B|158:317|163:286|178:262,1,64.9999970245363,2|0,0:0|0:0,0:0:0:0:
113,217,89872,1,0,0:0:0:0:
156,145,90043,2,0,B|187:139|218:142|245:152,1,64.9999970245363,2|0,0:0|0:0,0:0:0:0:
265,217,90386,2,0,B|296:223|327:220|354:210,1,64.9999970245363,2|0,0:0|0:0,0:0:0:0:
389,157,90729,1,0,0:0:0:0:
199,170,91072,6,0,B|175:204|178:249|205:281|239:293,1,129.999994049073,2|2,0:0|0:0,0:0:0:0:
305,137,91757,1,0,0:0:0:0:
245,76,91929,2,0,B|201:106|145:101|107:70,1,129.999994049073,2|2,0:0|0:0,0:0:0:0:
95,247,92615,1,2,0:0:0:0:
155,188,92786,2,0,B|167:158|161:127|144:103,1,64.9999970245363,2|0,0:0|0:0,0:0:0:0:
232,88,93129,2,0,B|250:140|246:194|228:241,1,129.999994049073,2|2,0:0|0:0,0:0:0:0:
395,158,93815,5,2,0:0:0:0:
278,280,94157,2,0,B|239:300|193:289|164:257|158:219,1,129.999994049073,2|0,0:0|0:0,0:0:0:0:
185,160,94672,2,0,B|174:117|133:89|88:94|58:118,1,129.999994049073,2|2,0:0|0:0,0:0:0:0:
134,265,95357,1,2,0:0:0:0:
213,235,95529,2,0,B|229:209|227:179|212:155,1,64.9999970245363,2|0,0:0|0:0,0:0:0:0:
165,107,95872,2,0,B|127:112|98:142|94:180|109:210,1,129.999994049073,2|0,0:0|0:0,0:0:0:0:
253,284,96557,5,2,0:0:0:0:
155,146,96900,2,0,B|126:116|125:69|153:36|188:26,1,129.999994049073,2|0,0:0|0:0,0:0:0:0:
254,47,97415,2,0,B|300:71|353:58|385:23,1,129.999994049073,2|2,0:0|0:0,0:0:0:0:
405,198,98100,1,2,0:0:0:0:
344,256,98272,2,0,B|313:263|282:252|263:229,1,64.9999970245363,2|0,0:0|0:0,0:0:0:0:
259,163,98615,2,0,B|290:156|321:167|340:190,1,64.9999970245363,2|0,0:0|0:0,0:0:0:0:
204,227,98957,1,0,0:0:0:0:
154,65,99300,5,2,0:0:0:0:
268,192,99643,2,0,B|288:230|275:277|238:302|200:300,1,129.999994049073,2|0,0:0|0:0,0:0:0:0:
305,272,100157,2,0,B|340:253|382:260|410:287|419:320,1,129.999994049073,2|2,0:0|0:0,0:0:0:0:
478,151,100843,1,2,0:0:0:0:
429,81,101015,2,0,B|399:66|366:66|338:78,1,64.9999970245363,2|0,0:0|0:0,0:0:0:0:
303,126,101357,2,0,B|276:156|232:162|196:142|181:110,1,129.999994049073,2|0,0:0|0:0,0:0:0:0:
232,286,102043,5,2,0:0:0:0:
363,180,102386,2,0,B|391:147|393:101|369:65|335:49,1,129.999994049073,2|0,0:0|0:0,0:0:0:0:
270,67,102900,2,0,B|226:96|169:83|139:43,1,129.999994049073,2|2,0:0|0:0,0:0:0:0:
88,213,103586,1,2,0:0:0:0:
168,187,103757,2,0,B|178:158|176:127|163:102,1,64.9999970245363,2|0,0:0|0:0,0:0:0:0:
255,116,104100,2,0,B|240:166|267:218|314:236,1,129.999994049073,2|0,0:0|0:0,0:0:0:0:
448,147,104786,5,2,0:2:0:0:
302,61,105129,2,0,B|270:33|223:35|191:65|184:101,1,129.999994049073,2|0,0:2|0:0,0:0:0:0:
140,149,105643,2,0,B|140:193|120:215|120:215|135:252|118:291,1,129.999994049073,2|2,0:0|0:0,0:0:0:0:
49,120,106329,1,2,0:2:0:0:
105,57,106500,2,0,B|133:44|164:48|187:64,1,64.9999970245363,2|0,0:2|0:0,0:0:0:0:
231,111,106843,1,2,0:2:0:0:
288,172,107015,2,0,B|323:199|371:198|406:170|419:134,1,129.999994049073,2|0,0:2|0:0,0:0:0:0:
339,104,107529,5,2,0:2:0:0:
194,191,107872,2,0,B|167:225|170:273|200:305|237:314,1,129.999994049073,2|0,0:2|0:0,0:0:0:0:
297,290,108386,2,0,B|332:278|332:278|384:303|430:268,1,129.999994049073,2|2,0:2|0:2,0:0:0:0:
457,108,109072,1,2,0:2:0:0:
380,144,109243,2,0,B|366:171|367:201|380:226,1,64.9999970245363,2|0,0:2|0:0,0:0:0:0:
440,258,109586,2,0,B|469:306|441:371|376:384|334:352,1,179.999994506836,2|0,0:2|0:0,0:0:0:0:
230,157,110272,6,0,B|196:129|147:130|114:160|103:197,1,129.999994049073,2|2,0:0|0:0,0:0:0:0:
249,274,110957,1,0,0:0:0:0:
324,234,111129,2,0,B|357:210|369:168|356:130|330:107,1,129.999994049073,2|2,0:2|0:0,0:0:0:0:
174,83,111815,1,2,0:0:0:0:
221,152,111986,2,0,B|245:177|283:177|307:154,1,64.9999970245363,2|0,0:0|0:0,0:0:0:0:
345,113,112329,2,0,B|377:87|421:89|452:115|463:149,1,129.999994049073,2|2,0:0|0:0,0:0:0:0:
355,279,113015,6,0,B|332:240|344:191|382:165|421:166,1,129.999994049073,2|2,0:0|0:0,0:0:0:0:
256,270,113700,1,0,0:0:0:0:
196,210,113872,2,0,B|160:189|115:197|88:229|83:265,1,129.999994049073,2|2,0:0|0:0,0:0:0:0:
256,270,114557,1,2,0:0:0:0:
323,218,114729,2,0,B|334:191|332:162|320:138,1,64.9999970245363,2|0,0:0|0:0,0:0:0:0:
260,100,115072,2,0,B|293:60|353:58|389:95,1,129.999994049073,2|2,0:0|0:0,0:0:0:0:
235,177,115757,6,0,B|193:207|134:192|111:146,1,129.999994049073,2|2,0:0|0:0,0:0:0:0:
247,48,116443,1,0,0:0:0:0:
319,91,116615,2,0,B|345:119|348:159|330:191|302:208,1,129.999994049073,2|2,0:0|0:0,0:0:0:0:
144,256,117300,1,2,0:0:0:0:
65,223,117472,2,0,B|47:200|46:170|59:146,1,64.9999970245363,2|0,0:0|0:0,0:0:0:0:
144,256,117815,2,0,B|130:297|89:322|45:317|16:293,1,129.999994049073,2|2,0:0|0:0,0:0:0:0:
137,168,118500,6,0,B|174:143|221:149|253:179|263:216,1,129.999994049073,2|2,0:0|0:0,0:0:0:0:
328,342,119186,1,0,0:0:0:0:
401,301,119357,2,0,B|428:269|429:224|404:190|371:176,1,129.999994049073,2|2,0:0|0:0,0:0:0:0:
306,160,119872,1,0,0:0:0:0:
233,203,120043,2,0,B|206:214|176:209|154:194,2,64.9999970245363,2|2|0,0:0|0:0|0:0,0:0:0:0:
200,124,120557,2,0,B|179:115|156:115|136:123,1,64.9999970245363,2|2,0:0|0:0,0:0:0:0:
79,185,120900,1,2,0:0:0:0:
181,319,121243,6,0,B|212:346|259:346|291:318|301:283,1,129.999994049073,2|2,0:0|0:0,0:0:0:0:
383,157,121929,1,0,0:0:0:0:
443,215,122100,2,0,B|470:247|471:291|449:326|418:343,1,129.999994049073,2|2,0:2|0:2,0:0:0:0:
281,256,122786,1,2,0:2:0:0:
229,188,122957,2,0,B|201:172|168:177|144:195,1,64.9999970245363,2|0,0:2|0:0,0:0:0:0:
125,257,123300,2,0,B|91:286|41:284|8:251|1:213,1,129.999994049073,2|2,0:2|0:2,0:0:0:0:
143,133,123986,6,0,B|162:102|197:88|232:95|256:116,1,129.999994049073,2|0,0:2|0:0,0:0:0:0:
292,281,124672,1,0,0:0:0:0:
350,341,124843,2,0,B|384:363|428:357|456:328|464:294,1,129.999994049073,2|2,0:2|0:2,0:0:0:0:
374,161,125529,1,2,0:2:0:0:
298,123,125700,2,0,B|268:112|236:120|213:139,1,64.9999970245363,2|0,0:2|0:0,0:0:0:0:
186,195,126043,2,0,B|156:224|111:228|76:206|59:174,1,129.999994049073,2|2,0:0|0:0,0:0:0:0:
212,281,126729,6,0,B|241:311|288:314|322:289|335:254,1,129.999994049073,2|2,0:0|0:0,0:0:0:0:
325,101,127415,1,0,0:0:0:0:
269,164,127586,2,0,B|254:191|257:223|274:247,1,64.9999970245363,2|0,0:0|0:0,0:0:0:0:
308,298,127929,2,0,B|312:337|286:372|249:382|216:372,1,129.999994049073,2|2,0:0|0:0,0:0:0:0:
158,321,128443,2,0,B|134:304|103:306|80:322,1,64.9999970245363,2|0,0:0|0:0,0:0:0:0:
69,232,128786,2,0,B|47:239|24:235|6:224,1,64.9999970245363,2|0,0:0|0:0,0:0:0:0:
51,151,129129,1,2,0:2:0:0:
256,192,129300,12,0,131186,0:0:0:0:
345,88,131872,6,0,B|306:57|253:61|219:92,1,110.000003356934,4|0,1:2|0:0,0:0:0:0:
65,240,132215,1,8,0:2:0:0:
291,188,132386,1,0,0:0:0:0:
291,188,132472,1,0,0:0:0:0:
291,188,132557,1,0,0:0:0:0:
46,73,132729,1,0,1:0:0:0:
193,246,132900,2,0,B|218:278|217:321|197:352,1,110.000003356934,8|0,0:2|0:0,0:0:0:0:
199,349,133157,1,0,0:0:0:0:
199,349,133243,5,0,0:0:0:0:
55,182,133415,1,0,1:0:0:0:
254,298,133586,2,0,B|296:317|343:304|371:272,1,110.000003356934,8|0,0:2|0:0,0:0:0:0:
445,92,133929,2,0,B|400:68|346:84|319:123,1,110.000003356934,0|0,0:0|1:0,0:0:0:0:
189,248,134272,1,8,0:2:0:0:
144,273,134357,1,0,0:0:0:0:
93,268,134443,1,0,0:0:0:0:
52,237,134529,1,0,0:0:0:0:
36,187,134614,5,2,1:2:0:0:
149,23,134786,1,0,0:0:0:0:
290,204,134957,2,0,B|308:245|296:290|265:317,1,110.000003356934,8|0,0:2|0:0,0:0:0:0:
241,338,135215,1,0,0:0:0:0:
196,355,135300,1,0,0:0:0:0:
204,111,135472,1,0,1:0:0:0:
423,184,135643,1,8,0:2:0:0:
193,246,135815,1,0,0:0:0:0:
193,246,135900,1,0,0:0:0:0:
193,246,135986,1,0,0:0:0:0:
399,89,136157,5,0,1:0:0:0:
277,257,136329,2,0,B|256:293|262:337|286:366,1,110.000003356934,8|0,0:2|0:0,0:0:0:0:
483,234,136672,2,0,B|505:198|499:154|473:126,1,110.000003356934,0|0,0:0|1:0,0:0:0:0:
318,47,137015,1,8,0:2:0:0:
280,82,137100,1,0,0:0:0:0:
230,98,137186,1,0,0:0:0:0:
179,91,137272,1,0,0:0:0:0:
136,61,137357,5,2,1:2:0:0:
59,225,137529,1,0,0:0:0:0:
28,18,137700,1,8,0:2:0:0:
178,213,137872,1,0,0:0:0:0:
178,213,137957,1,0,0:0:0:0:
178,213,138043,2,0,B|217:239|268:230|296:196,1,110.000003356934,0|0,0:0|1:0,0:0:0:0:
406,42,138386,1,8,0:2:0:0:
319,301,138557,1,0,0:0:0:0:
319,301,138643,1,0,0:0:0:0:
319,301,138729,6,0,B|372:290|403:237|389:187,1,110.000003356934,0|0,0:0|1:0,0:0:0:0:
142,217,139072,2,0,B|112:261|118:317|151:354,1,110.000003356934,8|0,0:2|0:0,0:0:0:0:
274,140,139415,2,0,B|264:99|229:72|191:69,1,110.000003356934,0|0,0:0|1:0,0:0:0:0:
244,287,139757,1,8,0:2:0:0:
294,297,139842,1,0,0:0:0:0:
345,284,139928,1,0,0:0:0:0:
382,248,140014,1,0,0:0:0:0:
399,200,140099,5,2,1:2:0:0:
170,234,140272,2,0,B|149:271|151:315|172:349,1,110.000003356934,0|8,0:0|0:2,0:0:0:0:
19,177,140615,1,0,0:0:0:0:
19,177,140700,1,0,0:0:0:0:
19,177,140786,2,0,B|41:141|39:98|20:64,1,110.000003356934,0|0,0:0|1:0,0:0:0:0:
282,27,141129,1,8,0:2:0:0:
116,140,141300,1,0,0:0:0:0:
116,140,141386,1,0,0:0:0:0:
116,140,141472,5,0,0:0:0:0:
314,180,141643,1,0,1:0:0:0:
122,32,141815,1,8,0:2:0:0:
198,202,141986,1,0,0:0:0:0:
390,111,142157,2,0,B|435:102|477:128|492:168,1,110.000003356934,0|0,0:0|1:0,0:0:0:0:
265,272,142500,1,8,0:2:0:0:
215,288,142585,1,0,0:0:0:0:
164,280,142671,1,0,0:0:0:0:
122,249,142757,1,0,0:0:0:0:
98,203,142842,5,2,1:2:0:0:
213,49,143015,1,2,0:2:0:0:
327,219,143186,2,0,B|352:251|348:296|322:323,1,110.000003356934,10|0,0:2|0:0,0:0:0:0:
321,323,143443,1,0,0:0:0:0:
318,326,143529,1,2,0:2:0:0:
209,186,143700,1,2,1:2:0:0:
335,35,143872,2,0,B|374:14|419:19|452:43,1,110.000003356934,10|0,0:2|0:0,0:0:0:0:
440,35,144129,1,0,0:0:0:0:
440,35,144215,5,2,0:2:0:0:
327,219,144386,1,2,1:2:0:0:
118,120,144557,2,0,B|92:87|96:42|122:14,1,110.000003356934,10|0,0:2|0:2,0:0:0:0:
196,201,144900,2,0,B|167:236|117:242|81:219,1,110.000003356934,2|2,0:2|1:2,0:0:0:0:
235,99,145243,1,10,0:2:0:0:
275,129,145328,1,0,0:0:0:0:
304,172,145414,1,0,0:0:0:0:
304,222,145500,1,0,0:0:0:0:
281,267,145585,5,2,1:2:0:0:
87,207,145757,1,0,0:0:0:0:
308,356,145929,2,0,B|347:379|396:367|422:333,1,110.000003356934,8|0,0:2|0:0,0:0:0:0:
443,313,146186,1,0,0:0:0:0:
459,271,146272,1,0,0:0:0:0:
190,263,146443,1,0,1:0:0:0:
420,144,146615,1,8,0:2:0:0:
185,137,146786,1,0,0:0:0:0:
182,134,146872,1,0,0:0:0:0:
179,131,146957,6,0,B|151:93|152:45|176:9,1,110.000003356934,0|0,0:0|1:0,0:0:0:0:
334,117,147300,2,0,B|348:153|342:192|321:221,1,110.000003356934,8|0,0:2|0:0,0:0:0:0:
154,314,147643,2,0,B|126:276|127:228|151:192,1,110.000003356934,0|0,0:0|1:0,0:0:0:0:
340,306,147986,1,8,0:2:0:0:
386,328,148071,1,0,0:0:0:0:
437,325,148157,1,0,0:0:0:0:
480,296,148243,1,0,0:0:0:0:
502,250,148328,5,2,1:2:0:0:
432,105,148500,1,0,0:0:0:0:
341,306,148672,1,8,0:2:0:0:
488,164,148843,1,0,0:0:0:0:
491,161,148929,1,0,0:0:0:0:
494,158,149015,2,0,B|521:127|524:84|503:50|473:32,1,110.000003356934,0|0,0:0|1:0,0:0:0:0:
308,232,149357,1,8,0:2:0:0:
491,307,149529,1,0,0:0:0:0:
491,307,149615,1,0,0:0:0:0:
491,307,149700,5,0,0:0:0:0:
403,189,149872,1,0,1:0:0:0:
202,277,150043,2,0,B|166:298|121:288|96:257,1,110.000003356934,8|0,0:2|0:0,0:0:0:0:
290,58,150386,2,0,B|326:37|371:47|396:78,1,110.000003356934,0|0,0:0|1:0,0:0:0:0:
147,186,150729,1,8,0:2:0:0:
116,144,150814,1,0,0:0:0:0:
108,94,150900,1,0,0:0:0:0:
123,45,150986,1,0,0:0:0:0:
161,9,151071,5,2,1:2:0:0:
292,215,151243,2,0,B|309:258|289:306|250:326,1,110.000003356934,0|8,0:0|0:2,0:0:0:0:
236,111,151586,1,0,0:0:0:0:
236,111,151672,1,0,0:0:0:0:
236,111,151757,2,0,B|276:86|324:91|358:117,1,110.000003356934,0|0,0:0|1:0,0:0:0:0:
475,285,152100,1,8,0:2:0:0:
281,330,152272,1,0,0:0:0:0:
281,330,152357,1,0,0:0:0:0:
281,330,152443,5,0,0:0:0:0:
293,160,152615,1,0,1:0:0:0:
89,124,152786,1,8,0:2:0:0:
212,253,152957,1,0,0:0:0:0:
360,206,153129,2,0,B|382:164|371:115|338:87,1,110.000003356934,0|0,0:0|1:0,0:0:0:0:
147,166,153472,1,8,0:2:0:0:
109,205,153557,1,0,0:0:0:0:
97,258,153643,1,0,0:0:0:0:
113,308,153729,1,0,0:0:0:0:
152,344,153814,5,6,1:2:0:0:
313,298,153986,1,2,0:2:0:0:
224,76,154157,2,0,B|191:44|140:43|106:68,1,110.000003356934,10|0,0:2|0:0,0:0:0:0:
118,62,154415,1,0,0:0:0:0:
115,65,154500,1,2,0:0:0:0:
284,221,154672,1,2,1:2:0:0:
445,74,154843,1,10,0:2:0:0:
293,106,155015,1,0,0:0:0:0:
293,106,155100,1,0,0:0:0:0:
293,106,155186,5,2,0:0:0:0:
476,219,155357,1,2,1:2:0:0:
345,29,155529,2,0,B|304:-1|249:5|215:38,1,110.000003356934,10|2,0:2|0:0,0:0:0:0:
174,195,155872,2,0,B|133:225|78:219|44:186,1,110.000003356934,2|2,0:0|1:2,0:0:0:0:
288,105,156215,1,10,0:2:0:0:
319,145,156300,1,0,0:0:0:0:
324,197,156386,1,0,0:0:0:0:
306,244,156472,1,0,0:0:0:0:
268,280,156557,6,0,B|233:308|183:304|154:273,1,110.000003356934,2|0,1:2|0:0,0:0:0:0:
388,126,156900,2,0,B|423:98|472:103|501:133,1,110.000003356934,8|0,0:2|0:0,0:0:0:0:
490,124,157157,1,0,0:0:0:0:
490,124,157243,1,0,0:0:0:0:
315,349,157415,1,0,1:0:0:0:
168,157,157586,2,0,B|148:116|156:70|184:39,1,110.000003356934,8|0,0:2|0:0,0:0:0:0:
177,49,157843,1,0,0:0:0:0:
180,46,157929,5,0,0:0:0:0:
368,240,158100,1,0,1:0:0:0:
174,349,158272,2,0,B|109:350|47:338,1,110.000003356934,8|0,0:2|0:0,0:0:0:0:
168,157,158615,2,0,B|223:147|277:149,1,110.000003356934,0|0,0:0|1:0,0:0:0:0:
477,239,158957,1,8,0:2:0:0:
492,286,159042,1,0,0:0:0:0:
481,335,159128,1,0,0:0:0:0:
447,370,159214,1,0,0:0:0:0:
400,383,159300,5,2,1:2:0:0:
279,204,159472,1,0,0:0:0:0:
505,142,159643,1,8,0:2:0:0:
399,290,159815,1,0,0:0:0:0:
399,290,159900,1,0,0:0:0:0:
399,290,159986,2,0,B|372:320|330:327|295:310|275:282,1,110.000003356934,0|0,0:0|1:0,0:0:0:0:
150,109,160329,1,8,0:2:0:0:
192,300,160500,1,0,0:0:0:0:
192,300,160586,1,0,0:0:0:0:
192,300,160672,5,0,0:0:0:0:
354,152,160843,1,0,1:0:0:0:
113,227,161015,2,0,B|69:248|18:231|-8:193,1,110.000003356934,8|0,0:2|0:0,0:0:0:0:
135,56,161357,2,0,B|179:35|230:52|256:90,1,110.000003356934,0|0,0:0|1:0,0:0:0:0:
398,179,161700,1,8,0:2:0:0:
390,230,161785,1,0,0:0:0:0:
383,281,161871,1,0,0:0:0:0:
375,333,161957,1,0,0:0:0:0:
368,384,162042,5,2,1:2:0:0:
199,206,162215,2,0,B|156:183|105:194|75:228,1,110.000003356934,0|8,0:0|0:2,0:0:0:0:
247,343,162557,1,0,0:0:0:0:
247,343,162643,1,0,0:0:0:0:
247,343,162729,2,0,B|283:375|339:369|368:332,1,110.000003356934,0|0,0:0|1:0,0:0:0:0:
481,143,163072,1,8,0:2:0:0:
312,278,163243,1,0,0:0:0:0:
312,278,163329,1,0,0:0:0:0:
312,278,163415,5,0,0:0:0:0:
512,334,163586,1,0,1:0:0:0:
349,137,163757,2,0,B|302:109|243:125|215:169,1,110.000003356934,8|0,0:2|0:0,0:0:0:0:
182,309,164100,2,0,B|135:337|76:321|48:277,1,110.000003356934,0|0,0:0|1:0,0:0:0:0:
141,108,164443,1,8,0:2:0:0:
164,61,164528,1,0,0:0:0:0:
206,32,164614,1,0,0:0:0:0:
258,27,164700,1,0,0:0:0:0:
305,47,164786,6,0,B|347:68|364:117|347:158,1,110.000003356934,2|2,1:2|0:0,0:0:0:0:
191,270,165129,2,0,B|182:308|199:345|228:366,1,110.000003356934,10|0,0:2|0:0,0:0:0:0:
229,366,165386,1,0,0:0:0:0:
229,366,165472,1,2,0:2:0:0:
429,184,165643,1,2,1:2:0:0:
226,112,165815,2,0,B|183:95|136:112|111:147,1,110.000003356934,10|0,0:2|0:0,0:0:0:0:
121,136,166072,1,0,0:0:0:0:
119,140,166157,5,2,0:2:0:0:
322,259,166329,1,2,1:2:0:0:
422,73,166500,2,0,B|455:108|461:157|441:197,1,110.000003356934,10|0,0:2|0:2,0:0:0:0:
228,285,166843,2,0,B|218:247|230:209|255:183,1,110.000003356934,2|2,0:2|1:2,0:0:0:0:
449,290,167186,1,8,0:2:0:0:
433,338,167271,1,0,0:0:0:0:
395,372,167357,1,0,0:0:0:0:
347,383,167443,1,0,0:0:0:0:
298,369,167528,5,2,1:2:0:0:
397,166,167700,1,0,0:0:0:0:
137,243,167872,1,8,0:2:0:0:
346,281,168043,1,0,0:0:0:0:
346,281,168129,1,0,0:0:0:0:
346,281,168215,1,0,0:0:0:0:
207,57,168386,1,0,1:0:0:0:
254,291,168557,2,0,B|229:333|174:345|134:319,1,110.000003356934,8|0,0:2|0:0,0:0:0:0:
156,327,168815,1,0,0:0:0:0:
153,324,168900,5,0,0:0:0:0:
103,113,169072,1,0,1:0:0:0:
376,208,169243,2,0,B|403:246|398:296|370:329,1,110.000003356934,8|0,0:2|0:0,0:0:0:0:
286,150,169586,2,0,B|301:108|346:86|387:99,1,110.000003356934,0|0,0:0|1:0,0:0:0:0:
288,262,169929,1,8,0:2:0:0:
237,253,170014,1,0,0:0:0:0:
198,221,170100,1,0,0:0:0:0:
180,173,170186,1,0,0:0:0:0:
190,122,170272,6,0,B|217:83|207:32|173:4,1,110.000003356934,2|0,1:2|0:0,0:0:0:0:
45,189,170615,2,0,B|20:227|29:276|62:303,1,110.000003356934,8|0,0:2|0:0,0:0:0:0:
56,294,170872,1,0,0:0:0:0:
61,297,170957,1,0,0:0:0:0:
287,259,171129,1,0,1:0:0:0:
124,125,171300,1,8,0:2:0:0:
303,341,171472,1,0,0:0:0:0:
303,341,171557,1,0,0:0:0:0:
303,341,171643,6,0,B|343:367|395:355|421:318,1,110.000003356934,0|0,0:0|1:0,0:0:0:0:
486,119,171986,2,0,B|446:93|394:105|368:142,1,110.000003356934,8|0,0:2|0:0,0:0:0:0:
245,262,172329,2,0,B|207:279|163:267|137:235|133:199,1,110.000003356934,0|0,0:0|1:0,0:0:0:0:
300,156,172672,1,8,0:2:0:0:
343,182,172757,1,0,0:0:0:0:
369,226,172843,1,0,0:0:0:0:
372,278,172929,1,0,0:0:0:0:
351,325,173014,5,2,1:2:0:0:
138,341,173186,1,0,0:0:0:0:
62,117,173357,1,8,0:2:0:0:
27,293,173529,1,0,0:0:0:0:
27,293,173615,1,0,0:0:0:0:
27,293,173700,1,0,0:0:0:0:
218,78,173872,1,0,1:0:0:0:
1,171,174043,1,8,0:2:0:0:
215,275,174215,1,0,0:0:0:0:
215,275,174300,1,0,0:0:0:0:
215,275,174386,6,0,B|266:291|319:257|327:205,1,110.000003356934,0|0,0:0|1:0,0:0:0:0:
341,17,174729,2,0,B|290:1|237:35|229:87,1,110.000003356934,8|0,0:2|0:0,0:0:0:0:
413,226,175072,2,0,B|464:242|517:208|525:156,1,110.000003356934,0|0,0:0|1:0,0:0:0:0:
304,169,175415,1,8,0:2:0:0:
282,219,175500,1,0,0:0:0:0:
288,273,175586,1,0,0:0:0:0:
319,317,175672,1,0,0:0:0:0:
368,341,175757,1,4,1:2:0:0:
93,69,176100,6,0,B|122:32|176:28|211:58,1,100,8|0,0:0|0:0,0:0:0:0:
135,208,176443,2,0,B|106:245|52:249|17:219,1,100,0|0,0:0|1:0,0:0:0:0:
160,123,176786,1,8,0:2:0:0:
258,248,176957,1,0,0:0:0:0:
258,248,177043,1,0,0:0:0:0:
258,248,177129,5,0,0:0:0:0:
71,156,177300,1,0,1:0:0:0:
255,74,177472,2,0,B|294:55|339:67|364:97,1,100,8|0,0:2|0:0,0:0:0:0:
417,229,177815,2,0,B|378:248|333:236|308:206,1,100,0|0,0:0|1:0,0:0:0:0:
183,97,178157,1,8,0:2:0:0:
141,69,178242,1,0,0:0:0:0:
92,67,178328,1,0,0:0:0:0:
48,90,178414,1,0,0:0:0:0:
23,132,178499,5,2,1:2:0:0:
131,319,178672,2,0,B|161:284|160:235|135:202,1,100,0|8,0:0|0:2,0:0:0:0:
295,161,179015,1,0,0:0:0:0:
295,161,179100,1,0,0:0:0:0:
295,161,179186,2,0,B|282:194|290:229|311:254,1,100,0|0,0:0|1:0,0:0:0:0:
426,77,179529,1,8,0:2:0:0:
319,262,179700,1,0,0:0:0:0:
319,262,179786,1,0,0:0:0:0:
319,262,179872,5,0,0:0:0:0:
484,155,180043,1,0,1:0:0:0:
267,203,180215,2,0,B|223:211|183:181|176:139,1,100,8|0,0:2|0:0,0:0:0:0:
329,95,180557,2,0,B|373:87|413:117|420:159,1,100,0|0,0:0|1:0,0:0:0:0:
302,318,180900,1,8,0:2:0:0:
263,348,180985,1,0,0:0:0:0:
214,354,181071,1,0,0:0:0:0:
169,333,181157,1,0,0:0:0:0:
142,292,181242,5,2,1:2:0:0:
140,130,181415,1,0,0:0:0:0:
302,318,181586,1,8,0:2:0:0:
269,161,181757,1,0,0:0:0:0:
269,161,181843,1,0,0:0:0:0:
269,161,181929,1,0,0:0:0:0:
151,360,182100,1,0,1:0:0:0:
341,224,182272,1,8,0:2:0:0:
166,255,182443,1,0,0:0:0:0:
163,258,182529,1,0,0:0:0:0:
160,261,182615,6,0,B|115:255|82:221|72:181,1,100,0|0,0:0|1:0,0:0:0:0:
272,70,182957,2,0,B|317:76|350:110|360:150,1,100,8|0,0:2|0:0,0:0:0:0:
155,120,183300,2,0,B|110:114|77:80|67:40,1,100,0|0,0:0|1:0,0:0:0:0:
269,161,183643,1,8,0:2:0:0:
284,207,183728,1,0,0:0:0:0:
274,256,183814,1,0,0:0:0:0:
240,291,183900,1,0,0:0:0:0:
193,305,183985,5,2,1:2:0:0:
50,231,184157,1,0,0:0:0:0:
213,94,184329,2,0,B|250:64|303:68|333:101,1,100,8|0,0:2|0:0,0:0:0:0:
306,82,184586,1,0,0:0:0:0:
306,82,184672,1,0,0:0:0:0:
134,204,184843,1,0,1:0:0:0:
257,30,185015,1,8,0:2:0:0:
284,207,185186,1,0,0:0:0:0:
284,207,185272,1,0,0:0:0:0:
284,207,185357,6,0,B|282:256|238:291|190:284,1,100,0|0,0:0|1:0,0:0:0:0:
254,104,185700,2,0,B|298:89|344:108|367:145,1,100,8|0,0:2|0:0,0:0:0:0:
172,166,186043,2,0,B|140:135|140:86|167:55,1,100,0|0,0:0|1:0,0:0:0:0:
366,187,186386,1,8,0:2:0:0:
381,233,186471,1,0,0:0:0:0:
370,281,186557,1,0,0:0:0:0:
335,316,186643,1,0,0:0:0:0:
287,328,186728,5,2,1:2:0:0:
139,266,186900,1,0,0:0:0:0:
366,187,187072,1,8,0:2:0:0:
287,328,187243,1,0,0:0:0:0:
287,328,187329,1,0,0:0:0:0:
287,328,187415,2,0,B|253:348|210:340|186:312,1,100,0|0,0:0|1:0,0:0:0:0:
366,187,187757,1,8,0:2:0:0:
208,217,187929,1,0,0:0:0:0:
164,194,188014,1,0,0:0:0:0:
140,151,188100,5,0,0:0:0:0:
381,89,188272,1,0,1:0:0:0:
274,255,188443,2,0,B|250:291|258:338|290:364,1,100,8|0,0:2|0:0,0:0:0:0:
432,236,188786,2,0,B|453:208|453:171|435:144,1,100,0|0,0:0|1:0,0:0:0:0:
264,62,189129,1,8,0:2:0:0:
221,86,189214,1,0,0:0:0:0:
171,88,189300,1,0,0:0:0:0:
127,66,189386,1,0,0:0:0:0:
97,26,189471,5,2,1:2:0:0:
164,194,189643,2,0,B|178:232|163:273|133:295,1,100,0|8,0:0|0:2,0:0:0:0:
284,361,189986,1,0,0:0:0:0:
284,361,190072,1,0,0:0:0:0:
284,361,190157,2,0,B|259:321|272:270|310:246,1,100,0|0,0:0|1:0,0:0:0:0:
434,142,190500,2,0,B|455:171|455:208|437:235,1,100,8|0,0:2|0:0,0:0:0:0:
434,239,190757,1,0,0:0:0:0:
431,242,190843,5,0,0:2:0:0:
328,53,191015,1,0,1:0:0:0:
346,261,191186,2,0,B|356:306|398:333|441:327,1,100,8|0,0:2|0:0,0:0:0:0:
330,145,191529,2,0,B|296:118|248:121|218:147,1,100,0|0,0:0|1:0,0:0:0:0:
132,314,191872,1,8,0:2:0:0:
83,321,191957,1,0,0:0:0:0:
37,303,192043,1,0,0:0:0:0:
7,263,192129,1,0,0:0:0:0:
1,214,192214,5,2,1:2:0:0:
171,202,192386,1,0,0:0:0:0:
289,373,192557,1,8,0:2:0:0:
132,314,192729,1,0,0:0:0:0:
132,314,192815,1,0,0:0:0:0:
132,314,192900,1,0,0:0:0:0:
322,205,193072,1,0,1:0:0:0:
183,377,193243,1,8,0:2:0:0:
244,173,193415,1,0,0:0:0:0:
247,170,193500,1,0,0:0:0:0:
250,167,193586,6,0,B|261:118|227:70|177:64,1,100,0|0,0:0|1:0,0:0:0:0:
146,234,193929,2,0,B|135:283|169:331|219:337,1,100,8|0,0:2|0:0,0:0:0:0:
350,324,194272,1,0,0:0:0:0:
146,234,194443,1,0,1:0:0:0:
359,251,194615,1,8,0:2:0:0:
407,244,194700,1,0,0:0:0:0:
445,212,194786,1,0,0:0:0:0:
461,166,194872,1,0,0:0:0:0:
448,118,194957,6,0,B|418:87|422:37|454:10,1,100,2|0,1:2|0:0,0:0:0:0:
210,108,195300,1,10,0:2:0:0:
375,165,195472,1,0,0:0:0:0:
375,165,195557,1,0,0:0:0:0:
375,165,195643,1,2,0:0:0:0:
221,18,195815,1,0,1:0:0:0:
286,229,195986,1,10,0:2:0:0:
357,66,196157,1,0,0:0:0:0:
357,66,196243,1,0,0:0:0:0:
357,66,196329,6,0,B|390:43|433:47|462:70,1,100,2|0,0:0|1:0,0:0:0:0:
286,229,196672,2,0,B|255:247|218:244|191:225,1,100,10|0,0:2|0:0,0:0:0:0:
47,91,197015,2,0,B|29:131|30:174|45:211,1,100,2|0,0:0|1:0,0:0:0:0:
120,325,197357,1,8,0:2:0:0:
165,344,197442,1,0,0:0:0:0:
214,338,197528,1,0,0:0:0:0:
253,308,197614,1,0,0:0:0:0:
273,263,197699,5,6,1:2:0:0:
174,135,197872,1,0,0:0:0:0:
315,358,198043,1,8,0:2:0:0:
181,259,198215,1,0,0:0:0:0:
178,256,198300,1,0,0:0:0:0:
175,253,198386,2,0,B|138:233|95:243|69:271,1,100,0|0,0:0|1:0,0:0:0:0:
236,364,198729,1,8,0:2:0:0:
349,226,198900,1,0,0:0:0:0:
349,226,198986,1,0,0:0:0:0:
349,226,199072,5,0,0:0:0:0:
213,61,199243,2,0,B|183:98|188:150|219:181,1,100,0|8,1:0|0:2,0:0:0:0:
349,226,199586,1,0,0:0:0:0:
215,61,199757,2,0,B|173:39|124:48|93:79,1,100,0|0,0:0|1:0,0:0:0:0:
214,228,200100,1,8,0:2:0:0:
257,252,200185,1,0,0:0:0:0:
306,251,200271,1,0,0:0:0:0:
349,226,200357,1,0,0:0:0:0:
372,182,200442,5,2,1:2:0:0:
152,163,200615,2,0,B|117:195|115:248|146:281,1,100,0|8,0:0|0:2,0:0:0:0:
281,162,200957,1,0,0:0:0:0:
281,162,201043,1,0,0:0:0:0:
281,162,201129,1,0,0:0:0:0:
78,73,201300,1,0,1:0:0:0:
192,243,201472,1,8,0:2:0:0:
299,73,201643,1,0,0:0:0:0:
302,70,201729,1,0,0:0:0:0:
305,67,201815,6,0,B|338:41|383:43|413:67,1,100,0|0,0:0|1:0,0:0:0:0:
286,234,202157,2,0,B|253:260|208:258|178:234,1,100,8|0,0:2|0:0,0:0:0:0:
398,152,202500,2,0,B|428:187|430:236|408:272,1,100,0|0,0:0|1:0,0:0:0:0:
201,163,202843,1,8,0:2:0:0:
177,119,202928,1,0,0:0:0:0:
181,70,203014,1,0,0:0:0:0:
211,30,203100,1,0,0:0:0:0:
257,13,203185,5,2,1:2:0:0:
326,158,203357,1,0,0:0:0:0:
76,209,203529,1,8,0:2:0:0:
263,274,203700,1,0,0:0:0:0:
263,274,203786,1,0,0:0:0:0:
263,274,203872,1,0,0:0:0:0:
181,70,204043,1,0,1:0:0:0:
147,296,204215,1,8,0:2:0:0:
265,138,204386,1,0,0:0:0:0:
265,138,204472,1,0,0:0:0:0:
265,138,204557,6,0,B|306:119|352:132|378:164,1,100,0|0,0:0|1:0,0:0:0:0:
453,306,204900,2,0,B|412:325|366:312|340:280,1,100,8|0,0:2|0:0,0:0:0:0:
222,210,205243,2,0,B|181:191|135:204|109:236,1,100,0|0,0:0|1:0,0:0:0:0:
320,309,205586,1,8,0:2:0:0:
356,276,205671,1,0,0:0:0:0:
373,229,205757,1,0,0:0:0:0:
367,180,205843,1,0,0:0:0:0:
337,140,205928,5,2,1:2:0:0:
150,118,206100,1,0,0:0:0:0:
320,309,206272,2,0,B|358:336|411:325|434:285,1,100,10|0,0:2|0:0,0:0:0:0:
416,304,206529,1,0,0:0:0:0:
419,301,206615,1,2,0:0:0:0:
337,140,206786,1,0,0:0:0:0:
192,301,206957,2,0,B|156:324|108:312|87:275,1,100,10|0,0:2|0:0,0:0:0:0:
96,288,207215,1,0,0:0:0:0:
93,285,207300,5,2,0:0:0:0:
227,132,207472,1,0,0:0:0:0:
353,229,207643,2,0,B|393:243|436:225|457:192,1,100,10|0,0:2|0:0,0:0:0:0:
466,47,207986,2,0,B|426:33|383:51|362:84,1,100,2|0,0:0|1:0,0:0:0:0:
263,235,208329,1,8,0:2:0:0:
240,279,208414,1,0,0:0:0:0:
198,304,208500,1,0,0:0:0:0:
149,302,208586,1,0,0:0:0:0:
108,273,208671,5,2,1:2:0:0:
227,132,208843,1,0,0:0:0:0:
366,284,209015,2,0,B|403:305|447:296|473:267,1,100,8|0,0:2|0:0,0:0:0:0:
463,275,209272,1,0,0:0:0:0:
466,272,209357,1,0,0:0:0:0:
311,115,209529,1,0,1:0:0:0:
165,240,209700,2,0,B|138:276|142:324|168:355,1,100,8|0,0:2|0:0,0:0:0:0:
155,334,209957,1,0,0:0:0:0:
155,334,210043,5,0,0:0:0:0:
326,209,210215,1,0,1:0:0:0:
161,77,210386,2,0,B|122:66|83:80|58:108,1,100,8|0,0:2|0:0,0:0:0:0:
264,143,210729,2,0,B|294:108|296:59|274:23,1,100,0|0,0:0|1:0,0:0:0:0:
142,180,211072,1,8,0:2:0:0:
156,227,211157,1,0,0:0:0:0:
191,262,211243,1,0,0:0:0:0:
238,276,211329,1,0,0:0:0:0:
287,267,211414,5,2,1:2:0:0:
349,119,211586,1,0,0:0:0:0:
156,227,211757,2,0,B|131:262|134:308|160:338,1,100,10|0,0:2|0:0,0:0:0:0:
149,321,212015,1,0,0:0:0:0:
149,321,212100,1,2,0:0:0:0:
347,218,212272,1,0,1:0:0:0:
158,125,212443,2,0,B|132:90|136:43|162:13,1,100,10|0,0:2|0:0,0:0:0:0:
154,27,212701,1,0,0:0:0:0:
157,24,212786,5,2,0:0:0:0:
303,167,212957,1,0,1:0:0:0:
151,303,213129,2,0,B|112:323|66:310|42:277,1,100,10|0,0:2|0:0,0:0:0:0:
206,106,213472,2,0,B|233:83|269:80|298:95,1,100,2|0,0:0|1:0,0:0:0:0:
375,284,213815,1,8,0:2:0:0:
355,329,213900,1,0,0:0:0:0:
316,360,213986,1,0,0:0:0:0:
267,368,214072,1,0,0:0:0:0:
221,352,214157,5,2,1:2:0:0:
327,168,214329,1,0,0:0:0:0:
488,351,214500,1,8,0:2:0:0:
434,199,214672,1,0,0:0:0:0:
434,199,214757,1,0,0:0:0:0:
434,199,214843,1,0,0:0:0:0:
316,360,215015,1,0,1:0:0:0:
486,271,215186,1,8,0:2:0:0:
288,274,215357,1,0,0:0:0:0:
285,271,215443,1,0,0:0:0:0:
282,268,215529,6,0,B|239:255|216:210|227:169,1,100,0|0,0:0|1:0,0:0:0:0:
301,24,215872,2,0,B|344:37|367:82|356:123,1,100,8|0,0:2|0:0,0:0:0:0:
121,97,216215,2,0,B|122:61|146:33|177:23,1,100,0|0,0:0|1:0,0:0:0:0:
214,217,216557,1,8,0:2:0:0:
176,249,216642,1,0,0:0:0:0:
128,259,216728,1,0,0:0:0:0:
81,244,216814,1,0,0:0:0:0:
47,208,216899,5,2,1:2:0:0:
218,109,217072,1,0,0:0:0:0:
185,346,217243,1,8,0:2:0:0:
135,167,217415,1,0,0:0:0:0:
135,167,217500,1,0,0:0:0:0:
135,167,217586,1,0,0:0:0:0:
334,312,217757,1,0,1:0:0:0:
147,248,217929,2,0,B|112:231|74:235|44:255,1,100,8|0,0:2|0:0,0:0:0:0:
47,254,218186,1,0,0:0:0:0:
44,258,218272,5,0,0:0:0:0:
196,366,218443,1,0,1:0:0:0:
315,229,218615,2,0,B|333:192|326:150|301:121,1,100,8|0,0:2|0:0,0:0:0:0:
165,199,218957,2,0,B|147:236|154:278|179:307,1,100,0|0,0:0|1:0,0:0:0:0:
400,289,219300,1,8,0:0:0:0:
414,237,219385,1,0,0:0:0:0:
400,185,219471,1,0,0:0:0:0:
362,147,219557,1,0,0:0:0:0:
310,133,219642,21,4,1:2:0:0:
180,222,241586,37,2,0:0:0:0:
359,51,241929,2,0,B|331:88|337:140|372:173|412:179,1,150.000005722046,2|2,0:0|0:0,0:0:0:0:
182,102,242615,1,0,0:0:0:0:
97,235,242786,2,0,B|105:280|142:312|188:316|223:298,1,150.000005722046,2|2,0:0|0:0,0:0:0:0:
393,86,243472,1,0,0:0:0:0:
455,233,243643,2,0,L|470:317,2,75.0000028610231,2|0|2,0:0|0:0|0:0,0:0:0:0:
213,61,244329,5,2,0:0:0:0:
191,286,244672,2,0,B|155:332|91:339|46:308,1,150.000005722046,2|2,0:0|0:0,0:0:0:0:
156,110,245357,1,0,0:0:0:0:
259,227,245529,2,0,B|289:273|280:332|242:367,1,150.000005722046,2|2,0:0|0:0,0:0:0:0:
485,228,246215,1,2,0:0:0:0:
366,106,246386,2,0,L|350:24,2,75.0000028610231,2|0|2,0:0|0:0|0:0,0:0:0:0:
450,333,247072,5,2,0:0:0:0:
274,282,247415,2,0,B|221:260|162:280|133:325,1,150.000005722046,2|2,0:0|0:0,0:0:0:0:
348,384,248100,1,0,0:0:0:0:
219,340,248272,2,0,B|186:307|183:255|212:218|250:205,1,150.000005722046,2|2,0:0|0:0,0:0:0:0:
383,70,248957,1,2,0:0:0:0:
217,95,249129,2,0,B|171:106|126:97,2,75.0000028610231,2|0|2,0:0|0:0|0:0,0:0:0:0:
410,194,249815,6,0,B|386:235|401:286|440:309,1,112.500004291535,2|0,0:0|0:0,0:0:0:0:
424,297,250157,2,0,B|375:336|311:340|260:314,1,150.000005722046,2|2,0:0|0:0,0:0:0:0:
47,265,250843,1,0,0:0:0:0:
143,151,251015,2,0,B|181:101|173:33|131:-7,1,150.000005722046,2|2,0:0|0:0,0:0:0:0:
326,140,251700,1,2,0:0:0:0:
467,80,251872,2,0,L|478:5,2,75.0000028610231,2|0|2,0:0|0:0|0:0,0:0:0:0:
403,345,252557,5,2,0:0:0:0:
153,333,252900,2,0,B|181:296|175:244|140:211|100:205,1,150.000005722046,2|2,0:0|0:0,0:0:0:0:
330,282,253586,1,0,0:0:0:0:
396,81,253757,2,0,B|346:74|300:105|284:153|297:195,1,150.000005722046,2|2,0:0|0:0,0:0:0:0:
119,298,254443,1,0,0:0:0:0:
57,151,254615,2,0,L|42:67,2,75.0000028610231,2|0|2,0:0|0:0|0:0,0:0:0:0:
299,323,255300,5,2,0:0:0:0:
321,98,255643,2,0,B|357:52|421:45|466:76,1,150.000005722046,2|2,0:0|0:0,0:0:0:0:
356,274,256328,1,0,0:0:0:0:
253,157,256500,2,0,B|223:111|232:52|270:17,1,150.000005722046,2|2,0:0|0:0,0:0:0:0:
27,156,257186,1,0,0:0:0:0:
146,278,257357,2,0,L|162:360,2,75.0000028610231,2|0|2,0:0|0:0|0:0,0:0:0:0:
62,51,258043,5,2,0:0:0:0:
238,102,258386,2,0,B|291:124|350:104|379:59,1,150.000005722046,2|2,0:0|0:0,0:0:0:0:
164,0,259071,1,0,0:0:0:0:
293,44,259243,2,0,B|326:77|329:129|300:166|262:179,1,150.000005722046,2|2,0:0|0:0,0:0:0:0:
129,314,259929,1,2,0:0:0:0:
295,289,260100,2,0,B|341:278|386:287,2,75.0000028610231,2|0|2,0:0|0:0|0:0,0:0:0:0:
102,190,260786,6,0,B|126:149|111:98|72:75,1,112.500004291535,2|0,0:0|0:0,0:0:0:0:
88,87,261129,2,0,B|145:103|202:94|248:68,1,150.000005722046,2|2,0:0|0:0,0:0:0:0:
473,47,261814,1,0,0:0:0:0:
377,161,261986,2,0,B|339:211|347:279|389:319,1,150.000005722046,2|2,0:0|0:0,0:0:0:0:
186,244,262671,1,2,0:0:0:0:
45,304,262843,2,0,L|34:379,2,75.0000028610231,2|0|2,0:0|0:0|0:0,0:0:0:0:
138,87,263529,5,6,0:2:0:0:
434,131,263872,2,0,B|445:166|441:202|428:233,1,89.9999972534181,2|0,0:3|0:0,0:0:0:0:
264,129,264215,2,0,B|254:92|258:55|271:23,1,89.9999972534181,0|0,0:0|0:0,0:0:0:0:
352,177,264557,1,2,0:3:0:0:
208,271,264729,1,0,0:0:0:0:
138,87,264900,5,2,0:2:0:0:
165,339,265243,2,0,B|199:357|238:351|265:328,1,89.9999972534181,2|0,0:3|0:0,0:0:0:0:
363,227,265586,1,0,0:0:0:0:
402,350,265757,1,0,0:0:0:0:
285,248,265929,1,0,0:2:0:0:
282,226,266014,1,0,0:0:0:0:
279,204,266100,1,0,0:0:0:0:
276,181,266186,1,0,0:0:0:0:
274,159,266271,5,2,0:0:0:0:
93,32,266615,2,0,B|83:66|86:101|98:131,1,89.9999972534181,2|0,0:3|0:0,0:0:0:0:
209,178,266957,1,0,0:0:0:0:
45,252,267129,1,0,0:0:0:0:
157,295,267300,2,0,B|167:325|166:356|158:384,1,89.9999972534181,2|0,0:3|0:0,0:0:0:0:
289,271,267643,5,2,0:2:0:0:
215,88,267986,2,0,L|208:186,1,89.9999972534181,2|0,0:3|0:0,0:0:0:0:
379,106,268329,2,0,B|389:73|387:40|376:11,1,89.9999972534181,0|0,0:0|0:0,0:0:0:0:
332,189,268672,1,0,0:3:0:0:
332,189,268757,1,0,0:0:0:0:
332,189,268843,1,0,0:0:0:0:
332,189,268929,1,0,0:0:0:0:
332,189,269015,5,2,0:2:0:0:
167,359,269357,2,0,L|75:364,1,89.9999972534181,2|0,0:3|0:0,0:0:0:0:
231,291,269700,2,0,L|328:285,1,89.9999972534181,0|0,0:0|0:0,0:0:0:0:
162,205,270043,2,0,B|149:167|152:129|166:95,1,89.9999972534181,2|0,0:3|0:0,0:0:0:0:
289,7,270386,5,2,0:2:0:0:
383,228,270729,2,0,B|419:238|455:234|486:221,1,89.9999972534181,2|0,0:3|0:3,0:0:0:0:
315,172,271072,2,0,B|291:210|293:255|315:289,1,89.9999972534181,0|0,0:0|0:0,0:0:0:0:
398,140,271415,1,0,0:3:0:0:
387,120,271500,1,0,0:0:0:0:
371,103,271586,1,0,0:0:0:0:
353,91,271672,1,0,0:0:0:0:
331,84,271757,5,2,0:2:0:0:
98,178,272100,2,0,B|135:195|176:188|206:165,1,89.9999972534181,2|0,0:3|0:0,0:0:0:0:
121,352,272443,1,0,0:0:0:0:
50,253,272615,1,0,0:0:0:0:
140,105,272786,2,0,L|145:11,1,89.9999972534181,2|0,0:3|0:0,0:0:0:0:
266,112,273129,5,2,0:2:0:0:
442,271,273472,2,0,L|449:362,1,89.9999972534181,2|0,0:3|0:0,0:0:0:0:
350,260,273815,2,0,B|349:216|381:180|422:173,1,89.9999972534181,0|0,0:0|0:0,0:0:0:0:
280,312,274157,1,0,0:3:0:0:
280,312,274243,1,0,0:0:0:0:
280,312,274329,1,0,0:0:0:0:
280,312,274415,1,0,0:0:0:0:
280,312,274500,5,2,0:2:0:0:
78,253,274843,2,0,B|67:218|71:182|84:151,1,89.9999972534181,2|0,0:3|0:0,0:0:0:0:
248,255,275186,2,0,B|258:292|254:329|241:361,1,89.9999972534181,0|0,0:0|0:0,0:0:0:0:
160,207,275528,1,2,0:3:0:0:
304,113,275700,1,0,0:0:0:0:
374,297,275872,5,2,0:2:0:0:
347,45,276214,2,0,B|313:27|274:33|247:56,1,89.9999972534181,2|0,0:3|0:0,0:0:0:0:
149,157,276557,1,0,0:0:0:0:
110,34,276728,1,0,0:0:0:0:
227,136,276900,1,0,0:3:0:0:
230,158,276985,1,0,0:0:0:0:
233,180,277071,1,0,0:0:0:0:
236,203,277157,1,0,0:0:0:0:
238,225,277242,5,2,0:2:0:0:
419,352,277586,2,0,B|429:318|426:283|414:253,1,89.9999972534181,2|0,0:3|0:0,0:0:0:0:
303,206,277928,1,0,0:0:0:0:
467,132,278100,1,0,0:0:0:0:
355,89,278272,2,0,B|345:59|346:28|354:0,1,89.9999972534181,2|0,0:3|0:0,0:0:0:0:
223,113,278614,5,2,0:2:0:0:
372,245,278957,2,0,B|391:284|384:329|358:359,1,89.9999972534181,2|0,0:3|0:0,0:0:0:0:
222,199,279300,2,0,B|200:159|212:112|245:86,1,89.9999972534181,,,0:0:0:0:
121,252,279643,1,0,0:0:0:0:
121,252,279729,1,0,0:0:0:0:
121,252,279815,1,0,0:0:0:0:
121,252,279900,1,0,0:0:0:0:
121,252,279986,5,2,0:2:0:0:
345,25,280329,2,0,L|437:20,1,89.9999972534181,2|0,0:3|0:0,0:0:0:0:
281,93,280671,2,0,L|184:99,1,89.9999972534181,0|0,0:0|0:0,0:0:0:0:
350,179,281014,2,0,B|363:217|360:255|346:289,1,89.9999972534181,2|0,0:3|0:0,0:0:0:0:
224,384,281357,5,2,0:2:0:0:
129,156,281700,2,0,B|93:146|57:150|26:163,1,89.9999972534181,2|0,0:3|0:0,0:0:0:0:
197,212,282043,2,0,B|221:174|219:129|197:95,1,89.9999972534181,0|0,0:0|0:0,0:0:0:0:
114,244,282386,1,0,0:0:0:0:
125,264,282471,1,0,0:0:0:0:
141,281,282557,1,0,0:0:0:0:
159,293,282643,1,0,0:0:0:0:
181,300,282728,5,2,0:0:0:0:
414,206,283072,2,0,B|377:189|336:196|306:219,1,89.9999972534181,2|0,0:3|0:0,0:0:0:0:
391,32,283414,1,0,0:0:0:0:
462,131,283586,1,0,0:0:0:0:
372,279,283757,2,0,L|367:373,1,89.9999972534181,2|0,0:3|0:0,0:0:0:0:
246,272,284100,5,2,0:2:0:0:
70,113,284443,2,0,L|63:22,1,89.9999972534181,2|0,0:3|0:0,0:0:0:0:
162,124,284786,2,0,B|163:168|131:204|90:211,1,89.9999972534181,0|0,0:0|0:0,0:0:0:0:
232,72,285129,1,0,0:0:0:0:
232,72,285214,1,0,0:0:0:0:
232,72,285300,1,0,0:0:0:0:
232,72,285386,1,0,0:0:0:0:
232,72,285471,5,2,0:0:0:0:
288,189,285643,1,2,0:0:0:0:
373,34,285815,1,10,0:0:0:0:
459,138,285986,1,2,0:0:0:0:
319,107,286157,1,2,0:0:0:0:
463,46,286329,1,2,0:0:0:0:
372,177,286500,1,10,0:0:0:0:
452,289,286672,1,2,0:0:0:0:
329,356,286843,6,0,L|232:363,1,89.9999972534181,2|2,0:0|0:0,0:0:0:0:
88,263,287186,2,0,L|189:269,1,89.9999972534181,10|2,0:0|0:0,0:0:0:0:
287,146,287529,1,2,0:0:0:0:
158,185,287700,1,2,0:0:0:0:
95,61,287872,1,10,0:0:0:0:
126,72,287957,1,0,0:0:0:0:
160,72,288043,1,2,0:0:0:0:
192,62,288129,1,0,0:0:0:0:
218,42,288215,6,0,L|211:140|211:140,1,89.9999972534181,2|2,0:0|0:0,0:0:0:0:
357,214,288557,2,0,B|364:113|364:113|366:103,1,89.9999972534181,10|2,0:0|0:0,0:0:0:0:
273,239,288900,1,2,0:2:0:0:
433,275,289072,1,2,0:0:0:0:
470,111,289243,1,10,0:0:0:0:
511,253,289415,1,2,0:0:0:0:
349,299,289586,6,0,L|257:325,1,89.9999972534181,2|2,0:0|0:0,0:0:0:0:
139,259,289929,2,0,B|150:151|150:151|150:150,1,89.9999972534181,10|2,0:0|0:0,0:0:0:0:
119,38,290272,2,0,B|149:55|184:53|211:37,1,89.9999972534181,2|2,0:0|0:0,0:0:0:0:
378,22,290615,1,10,0:0:0:0:
374,55,290700,1,0,0:0:0:0:
371,89,290786,1,2,0:0:0:0:
368,122,290872,1,0,0:0:0:0:
365,156,290957,6,0,L|467:167|467:167,1,89.9999972534181,2|2,0:0|0:0,0:0:0:0:
348,244,291300,1,10,0:0:0:0:
247,92,291472,1,2,0:0:0:0:
198,234,291643,1,2,0:0:0:0:
293,171,291815,1,2,0:0:0:0:
203,19,291986,1,10,0:0:0:0:
70,108,292157,1,2,0:0:0:0:
222,163,292329,5,2,0:0:0:0:
137,60,292500,1,2,0:0:0:0:
5,151,292672,1,10,0:0:0:0:
122,279,292843,1,2,0:0:0:0:
144,141,293015,1,2,0:0:0:0:
58,220,293186,1,2,0:0:0:0:
185,337,293357,1,8,0:0:0:0:
185,337,293443,1,0,0:0:0:0:
185,337,293529,1,2,0:2:0:0:
185,337,293615,1,0,0:0:0:0:
185,337,293700,6,0,L|282:341|282:341,1,89.9999972534181,2|2,0:0|0:0,0:0:0:0:
451,272,294043,2,0,B|464:236|462:198|449:165,1,89.9999972534181,10|2,0:0|0:0,0:0:0:0:
322,70,294386,2,0,B|309:106|311:144|324:177,1,89.9999972534181,2|2,0:0|0:0,0:0:0:0:
228,47,294729,1,10,0:0:0:0:
124,174,294900,1,2,0:0:0:0:
253,216,295072,5,2,0:0:0:0:
177,110,295243,1,2,0:0:0:0:
72,239,295415,1,10,0:0:0:0:
173,326,295586,1,2,0:0:0:0:
326,266,295757,2,0,B|340:230|336:192|319:161,1,89.9999972534181,2|2,0:0|0:0,0:0:0:0:
118,84,296100,1,10,0:0:0:0:
119,106,296185,1,0,0:0:0:0:
120,128,296271,1,2,0:0:0:0:
122,151,296357,1,0,0:0:0:0:
123,173,296443,5,2,0:0:0:0:
24,98,296615,1,2,0:0:0:0:
197,210,296786,2,0,L|205:303,1,89.9999972534181,10|2,0:2|0:0,0:0:0:0:
303,155,297129,2,0,B|317:113|311:70|290:36,1,89.9999972534181,2|2,0:0|0:0,0:0:0:0:
413,194,297472,1,10,0:0:0:0:
310,268,297643,1,2,0:0:0:0:
223,114,297815,6,0,B|207:82|209:46|224:17,1,89.9999972534181,2|2,0:0|0:0,0:0:0:0:
196,210,298157,2,0,B|162:223|127:221|97:208,1,89.9999972534181,10|2,0:0|0:0,0:0:0:0:
305,156,298500,2,0,B|347:146|388:150|424:166,1,89.9999972534181,2|2,0:0|0:0,0:0:0:0:
308,321,298843,1,10,0:0:0:0:
274,323,298928,1,0,0:0:0:0:
240,325,299014,1,2,0:0:0:0:
207,328,299100,1,0,0:0:0:0:
173,330,299186,5,2,0:0:0:0:
58,192,299357,1,2,0:0:0:0:
196,210,299529,1,10,0:0:0:0:
117,260,299700,1,2,0:0:0:0:
140,65,299872,1,2,0:0:0:0:
274,161,300043,1,2,0:0:0:0:
168,138,300215,1,10,0:0:0:0:
297,18,300386,1,2,0:0:0:0:
351,207,300557,6,0,B|315:254|250:264|198:231|180:183,1,179.999994506836,2|8,0:0|0:0,0:0:0:0:
140,65,301072,1,2,0:0:0:0:
117,260,301243,1,2,0:0:0:0:
229,67,301415,1,2,0:0:0:0:
413,142,301586,1,10,0:2:0:0:
429,171,301671,1,0,0:0:0:0:
436,204,301757,1,2,0:0:0:0:
433,237,301843,1,0,0:0:0:0:
420,269,301929,5,2,0:0:0:0:
167,201,302272,2,0,B|125:167|61:179|32:232|42:279,1,179.999994506836,2|2,0:0|0:0,0:0:0:0:
275,384,302957,1,0,0:0:0:0:
117,260,303129,2,0,B|80:223|81:162|123:124|169:121,1,179.999994506836,2|2,0:0|0:0,0:0:0:0:
300,23,303815,1,0,0:0:0:0:
131,46,303986,2,0,B|82:58|33:47,2,89.9999972534181,2|2|2,0:0|0:0|0:0,0:0:0:0:
419,112,304672,6,0,B|393:158|414:216|463:236,1,134.999995880127,2|0,0:0|0:0,0:0:0:0:
450,229,305015,2,0,B|403:210|349:233|328:281|338:325,1,179.999994506836,2|2,0:2|0:0,0:0:0:0:
120,294,305700,1,0,0:2:0:0:
217,338,305872,1,0,0:0:0:0:
70,212,306043,2,0,B|50:170|61:122|92:92,1,89.9999972534181,4|0,0:0|0:0,0:0:0:0:
375,102,306557,5,2,0:2:0:0:
304,214,306729,1,2,0:2:0:0:
449,247,306900,1,2,0:2:0:0:
424,21,307072,1,2,0:2:0:0:
207,244,307415,5,4,1:2:0:0:
61,352,307586,1,0,0:0:0:0:
267,327,307757,2,0,B|317:284|319:208|275:162,1,125,8|0,0:0|0:0,0:0:0:0:
115,65,308100,1,0,0:0:0:0:
207,244,308272,1,0,1:0:0:0:
393,237,308443,2,0,B|398:170|345:115|281:114,1,125,8|0,0:2|0:0,0:0:0:0:
123,145,308786,5,0,0:0:0:0:
304,214,308957,1,0,1:0:0:0:
418,78,309129,2,0,B|375:28|299:26|253:70,1,125,8|0,0:2|0:0,0:0:0:0:
174,209,309472,1,0,0:0:0:0:
338,131,309643,1,0,1:0:0:0:
339,349,309815,2,0,B|350:372|375:383|398:378,1,62.5,8|0,0:2|0:0,0:0:0:0:
446,299,309986,2,0,B|473:293|492:269|492:241|479:221,1,62.5,,,0:0:0:0:
446,185,310157,6,0,B|470:147|456:98|417:77,1,125,2|0,1:2|0:0,0:0:0:0:
168,26,310500,1,8,0:2:0:0:
241,136,310672,1,0,0:0:0:0:
241,136,310757,1,0,0:0:0:0:
241,136,310843,1,0,0:0:0:0:
237,301,311015,1,0,1:0:0:0:
338,131,311186,2,0,B|377:99|429:98|468:122,1,125,8|0,0:2|0:0,0:0:0:0:
455,115,311443,1,0,0:0:0:0:
455,115,311529,5,0,0:0:0:0:
407,265,311700,1,0,1:0:0:0:
286,50,311872,1,8,2:0:0:0:
455,115,312043,1,0,0:0:0:0:
319,286,312215,1,0,0:0:0:0:
500,372,312386,1,0,1:0:0:0:
259,363,312557,1,8,0:2:0:0:
230,326,312642,1,0,0:0:0:0:
222,280,312728,1,0,0:0:0:0:
234,235,312814,1,0,0:0:0:0:
266,201,312899,5,2,1:2:0:0:
93,320,313072,1,0,0:0:0:0:
135,120,313243,1,8,0:2:0:0:
266,201,313415,2,0,B|279:228|310:241|339:231|354:210,1,62.5,0|0,0:0|0:0,0:0:0:0:
336,144,313586,2,0,B|389:151|436:118|451:71,1,125,0|0,0:0|1:0,0:0:0:0:
212,35,313929,2,0,B|164:40|131:82|135:128,1,125,8|0,0:2|0:0,0:0:0:0:
135,120,314186,1,0,0:0:0:0:
135,120,314272,5,0,0:0:0:0:
222,280,314443,1,0,1:0:0:0:
311,99,314615,1,8,0:2:0:0:
414,209,314786,1,0,0:0:0:0:
274,360,314957,1,0,0:0:0:0:
172,199,315129,1,0,1:0:0:0:
348,27,315300,1,8,0:2:0:0:
379,61,315385,1,0,0:0:0:0:
388,106,315471,1,0,0:0:0:0:
371,149,315557,1,0,0:0:0:0:
333,176,315643,5,2,1:2:0:0:
85,161,315815,1,0,0:0:0:0:
181,327,315986,1,0,0:0:0:0:
194,185,316157,1,0,0:0:0:0:
194,185,316243,1,0,0:0:0:0:
194,185,316329,1,0,0:0:0:0:
46,263,316500,1,0,1:0:0:0:
245,364,316672,2,0,B|288:386|337:381|372:355,1,125,8|0,0:2|0:0,0:0:0:0:
365,361,316929,1,0,0:0:0:0:
365,361,317015,5,0,0:0:0:0:
502,191,317186,1,0,1:0:0:0:
259,113,317357,1,8,0:2:0:0:
304,292,317529,1,0,0:0:0:0:
433,152,317700,1,0,0:0:0:0:
226,201,317872,1,0,1:0:0:0:
429,243,318043,1,8,0:2:0:0:
472,226,318128,1,0,0:0:0:0:
502,191,318214,1,0,0:0:0:0:
511,146,318300,1,0,0:0:0:0:
497,102,318385,5,2,1:2:0:0:
255,22,318557,1,2,0:2:0:0:
433,152,318729,2,0,B|392:191|331:192|290:160,1,125,10|0,0:2|0:0,0:0:0:0:
169,53,319072,1,2,0:0:0:0:
361,104,319243,1,2,1:2:0:0:
325,268,319415,2,0,B|269:266|225:224|218:172,1,125,10|0,0:2|0:0,0:0:0:0:
212,38,319757,5,2,0:0:0:0:
316,174,319929,1,2,1:2:0:0:
166,276,320100,2,0,B|127:235|126:174|158:133,1,125,10|0,0:2|0:0,0:0:0:0:
255,22,320443,1,2,0:0:0:0:
226,201,320615,1,2,1:2:0:0:
52,213,320786,1,10,0:2:0:0:
47,166,320871,1,0,0:0:0:0:
42,119,320957,1,0,0:0:0:0:
37,73,321043,1,0,0:0:0:0:
32,26,321128,5,2,1:2:0:0:
145,151,321300,1,0,0:0:0:0:
336,16,321472,1,8,0:2:0:0:
211,230,321643,1,0,0:0:0:0:
211,230,321729,1,0,0:0:0:0:
211,230,321815,2,0,B|185:273|191:325|219:361,1,125,0|0,0:0|1:0,0:0:0:0:
326,132,322157,2,0,B|358:95|357:42|330:6,1,125,8|0,0:2|0:0,0:0:0:0:
239,65,322415,1,0,0:0:0:0:
239,65,322500,6,0,L|97:52,1,125,0|0,0:0|1:0,0:0:0:0:
52,213,322843,1,8,0:2:0:0:
268,181,323015,1,0,0:0:0:0:
145,151,323186,1,0,0:0:0:0:
195,326,323357,1,0,1:0:0:0:
336,232,323529,1,8,0:2:0:0:
343,185,323614,1,0,0:0:0:0:
350,139,323700,1,0,0:0:0:0:
358,93,323786,1,0,0:0:0:0:
365,46,323871,5,2,1:2:0:0:
242,217,324043,1,0,0:0:0:0:
489,339,324215,1,8,0:2:0:0:
354,288,324386,2,0,B|331:270|325:238|339:211|361:198,1,62.5,0|0,0:0|0:0,0:0:0:0:
278,326,324557,2,0,B|241:347|195:339|165:310|155:274,1,125,0|0,0:0|1:0,0:0:0:0:
156,136,324900,2,0,B|209:143|245:189|243:239,1,125,8|0,0:2|0:0,0:0:0:0:
241,216,325157,1,0,0:0:0:0:
241,216,325243,5,0,0:0:0:0:
250,52,325415,1,0,1:0:0:0:
182,269,325586,2,0,B|211:305|263:311|301:282|313:244,1,125,8|0,0:2|0:0,0:0:0:0:
430,101,325929,1,0,0:0:0:0:
392,245,326100,1,0,1:0:0:0:
177,175,326272,1,8,0:2:0:0:
135,196,326357,1,0,0:0:0:0:
110,237,326443,1,0,0:0:0:0:
111,282,326529,1,0,0:0:0:0:
135,321,326614,5,2,1:2:0:0:
324,219,326786,1,0,0:0:0:0:
60,334,326957,1,8,0:2:0:0:
258,373,327129,1,0,0:0:0:0:
258,373,327215,1,0,0:0:0:0:
258,373,327300,2,0,B|300:388|346:372|372:336|375:297,1,125,0|0,0:0|1:0,0:0:0:0:
427,128,327643,1,8,0:2:0:0:
250,188,327815,1,0,0:0:0:0:
250,188,327900,1,0,0:0:0:0:
250,188,327986,6,0,B|234:235|257:285|300:304,1,125,0|0,0:0|1:0,0:0:0:0:
114,163,328329,1,8,0:2:0:0:
331,219,328500,1,0,0:0:0:0:
172,275,328672,1,0,0:0:0:0:
326,135,328843,1,0,1:0:0:0:
171,175,329015,2,0,B|142:187|109:173|94:143|100:116,1,62.5,8|0,0:2|0:0,0:0:0:0:
136,51,329186,2,0,B|107:39|93:6|104:-25|127:-40,1,62.5,,,0:0:0:0:
12,86,329357,6,0,B|-21:123|-19:177|11:211,1,125,6|2,1:2|0:0,0:0:0:0:
271,258,329700,2,0,B|292:217|289:170|268:133,1,125,10|0,0:2|0:0,0:0:0:0:
105,61,330043,1,2,0:2:0:0:
110,334,330215,1,2,1:2:0:0:
415,283,330386,2,0,B|401:239|365:208|324:196,1,125,10|0,0:2|0:0,0:0:0:0:
329,198,330643,1,0,0:0:0:0:
329,198,330729,5,2,0:2:0:0:
210,212,330900,1,2,1:2:0:0:
256,34,331072,1,10,0:2:0:0:
408,186,331243,1,2,0:0:0:0:
133,224,331415,1,2,0:2:0:0:
311,95,331586,1,2,1:2:0:0:
179,299,331757,1,10,0:2:0:0:
135,315,331842,1,0,0:0:0:0:
89,311,331928,1,0,0:0:0:0:
48,289,332014,1,0,0:0:0:0:
21,251,332100,6,0,B|-11:198|-1:133|39:92,1,125,2|0,1:2|0:0,0:0:0:0:
179,299,332443,1,8,0:2:0:0:
320,172,332615,1,0,0:0:0:0:
131,107,332786,2,0,B|97:154|111:218|158:248,1,125,0|0,0:0|1:0,0:0:0:0:
389,129,333129,2,0,B|426:86|415:20|367:-9,1,125,8|0,0:2|0:0,0:0:0:0:
391,13,333386,1,0,0:0:0:0:
391,13,333472,5,0,0:0:0:0:
512,142,333643,1,0,1:0:0:0:
320,172,333815,2,0,B|291:213|298:267|331:299,1,125,8|0,0:2|0:0,0:0:0:0:
492,371,334157,1,0,0:0:0:0:
391,226,334329,1,0,1:0:0:0:
216,302,334500,1,8,0:2:0:0:
178,274,334585,1,0,0:0:0:0:
157,233,334671,1,0,0:0:0:0:
155,186,334757,1,0,0:0:0:0:
174,144,334842,5,2,1:2:0:0:
59,272,335015,1,0,0:0:0:0:
245,211,335186,1,8,0:2:0:0:
120,80,335357,1,0,0:0:0:0:
120,80,335443,1,0,0:0:0:0:
120,80,335529,1,0,0:0:0:0:
157,233,335700,1,0,1:0:0:0:
300,77,335872,1,8,0:2:0:0:
391,193,336043,1,0,0:0:0:0:
391,193,336129,1,0,0:0:0:0:
391,193,336215,6,0,B|413:235|408:282|385:319,1,125,0|0,0:0|1:0,0:0:0:0:
233,139,336557,2,0,B|211:97|216:50|239:13,1,125,8|0,0:0|0:0,0:0:0:0:
50,114,336900,1,0,0:0:0:0:
157,233,337072,1,0,1:0:0:0:
303,73,337243,1,8,0:2:0:0:
319,116,337328,1,0,0:0:0:0:
316,163,337414,1,0,0:0:0:0:
294,204,337500,1,0,0:0:0:0:
258,233,337585,5,2,1:2:0:0:
145,112,337757,1,0,0:0:0:0:
75,307,337929,1,8,0:2:0:0:
233,139,338100,1,0,0:0:0:0:
233,139,338186,1,0,0:0:0:0:
233,139,338272,1,0,0:0:0:0:
68,90,338443,1,0,1:0:0:0:
165,272,338615,1,8,0:2:0:0:
316,163,338786,1,0,0:0:0:0:
316,163,338872,1,0,0:0:0:0:
316,163,338957,6,0,B|328:114|298:66|251:53,1,125,0|0,0:0|1:0,0:0:0:0:
263,237,339300,2,0,B|304:270|365:258|391:212,1,125,8|0,0:2|0:0,0:0:0:0:
472,48,339643,1,0,0:0:0:0:
488,212,339815,1,0,1:0:0:0:
225,157,339986,1,8,0:2:0:0:
191,189,340071,1,0,0:0:0:0:
178,233,340157,1,0,0:0:0:0:
189,279,340243,1,0,0:0:0:0:
220,313,340328,5,2,1:2:0:0:
351,230,340500,1,2,0:0:0:0:
74,203,340672,2,0,B|36:163|33:104|59:61,1,125,10|0,0:2|0:2,0:0:0:0:
47,86,340929,1,0,0:0:0:0:
47,86,341015,1,2,0:2:0:0:
213,33,341186,1,2,1:2:0:0:
351,230,341357,2,0,B|383:260|391:306|373:345|343:368,1,125,10|0,0:2|0:0,0:0:0:0:
364,344,341615,1,0,0:0:0:0:
364,344,341700,5,2,0:2:0:0:
272,217,341872,1,2,1:2:0:0:
346,71,342043,2,0,B|360:28|401:1|446:4|478:26,1,125,10|0,0:2|0:0,0:0:0:0:
216,9,342386,1,2,0:0:0:0:
431,95,342557,1,2,1:2:0:0:
272,217,342729,2,0,B|239:218|213:242|207:274|219:300,1,62.5,10|0,0:2|0:0,0:0:0:0:
270,314,342900,2,0,B|254:342|261:377|287:398|315:401,1,62.5,0|0,0:0|0:0,0:0:0:0:
364,344,343072,6,0,B|400:377|456:376|492:340|498:297,1,125,2|0,0:2|0:0,0:0:0:0:
272,217,343415,1,8,0:2:0:0:
424,172,343586,1,0,0:0:0:0:
424,172,343672,1,0,0:0:0:0:
424,172,343757,1,0,0:0:0:0:
338,275,343929,1,0,1:0:0:0:
380,39,344100,1,8,0:2:0:0:
256,166,344272,2,0,B|227:193|180:188|157:156,1,62.5,0|0,0:0|0:0,0:0:0:0:
194,95,344443,6,0,B|148:88|118:44|127:0,1,125,0|0,0:0|1:0,0:0:0:0:
198,258,344786,2,0,B|208:307|173:354|125:360,1,125,8|0,0:2|0:0,0:0:0:0:
338,275,345129,1,0,0:0:0:0:
103,271,345300,1,0,1:0:0:0:
266,109,345472,1,8,0:2:0:0:
302,80,345557,1,0,0:0:0:0:
347,68,345643,1,0,0:0:0:0:
394,73,345729,1,0,0:0:0:0:
434,96,345814,5,2,1:2:0:0:
305,5,345986,1,0,0:0:0:0:
353,186,346157,1,8,0:2:0:0:
496,230,346329,1,0,0:0:0:0:
496,230,346415,1,0,0:0:0:0:
496,230,346500,1,0,0:0:0:0:
434,96,346672,1,0,1:0:0:0:
266,270,346843,1,8,0:2:0:0:
66,217,347015,2,0,B|33:205|17:170|26:139,1,62.5,0|0,0:0|0:0,0:0:0:0:
103,138,347186,6,0,B|74:92|81:34|115:-3,1,125,0|0,0:0|1:0,0:0:0:0:
215,163,347529,2,0,B|218:205|191:242|151:255|116:246,1,125,8|0,0:2|0:0,0:0:0:0:
266,270,347872,1,0,0:0:0:0:
66,217,348043,1,0,1:0:0:0:
183,85,348215,1,8,0:2:0:0:
228,77,348300,1,0,0:0:0:0:
271,96,348386,1,0,0:0:0:0:
296,134,348472,1,0,0:0:0:0:
297,180,348557,6,0,B|276:216|282:260|310:290|344:300,1,125,2|0,1:2|0:0,0:0:0:0:
215,163,348900,1,8,0:2:0:0:
356,71,349072,1,0,0:0:0:0:
356,71,349157,1,0,0:0:0:0:
356,71,349243,2,0,B|398:48|446:51|484:74,1,125,0|0,0:0|1:0,0:0:0:0:
354,243,349586,2,0,B|322:270|277:273|242:251|224:220,1,125,8|0,0:2|0:0,0:0:0:0:
240,239,349843,1,0,0:0:0:0:
240,239,349929,5,0,0:0:0:0:
271,96,350100,1,0,1:0:0:0:
436,240,350272,1,8,0:2:0:0:
436,82,350443,1,0,0:0:0:0:
297,180,350615,1,0,0:0:0:0:
129,61,350786,1,0,1:0:0:0:
157,250,350957,1,8,0:2:0:0:
158,256,351043,1,0,0:0:0:0:
159,262,351129,1,0,0:0:0:0:
160,267,351215,1,0,0:0:0:0:
161,272,351300,6,0,B|125:302|74:299|41:272,1,125,6|2,1:2|0:0,0:0:0:0:
297,180,351643,2,0,B|348:152|410:172|436:221,1,125,10|0,0:2|0:0,0:0:0:0:
413,193,351900,1,0,0:0:0:0:
413,193,351986,1,2,0:2:0:0:
233,73,352157,1,2,1:2:0:0:
345,254,352329,2,0,B|355:299|330:342|290:358,1,125,10|0,0:2|0:0,0:0:0:0:
292,356,352586,1,0,0:0:0:0:
292,356,352672,5,2,0:0:0:0:
495,307,352843,1,2,1:2:0:0:
253,248,353015,2,0,B|218:222|206:177|221:136|250:113,1,125,10|0,0:2|0:0,0:0:0:0:
414,21,353357,1,2,0:2:0:0:
310,176,353529,1,2,1:2:0:0:
95,149,353700,1,10,0:2:0:0:
51,166,353785,1,0,0:0:0:0:
22,202,353871,1,0,0:0:0:0:
14,247,353957,1,0,0:0:0:0:
29,291,354043,6,0,B|43:330|83:351|124:342|149:316,1,125,2|0,1:2|0:0,0:0:0:0:
310,176,354386,1,8,0:2:0:0:
106,241,354557,1,0,0:0:0:0:
106,241,354643,1,0,0:0:0:0:
106,241,354729,1,0,0:0:0:0:
236,359,354900,1,0,1:0:0:0:
95,149,355072,1,8,0:2:0:0:
302,254,355243,2,0,B|330:262|358:250|373:226|373:201,1,62.5,0|0,0:0|0:0,0:0:0:0:
420,298,355415,6,0,B|469:298|506:344|497:392,1,125,0|0,0:2|1:0,0:0:0:0:
411,164,355757,2,0,B|389:122|399:73|432:41|471:31,1,125,8|0,0:2|0:0,0:0:0:0:
310,176,356100,1,0,0:0:0:0:
336,16,356272,1,0,1:0:0:0:
175,180,356443,1,8,0:2:0:0:
154,221,356528,1,0,0:0:0:0:
148,268,356614,1,0,0:0:0:0:
160,313,356700,1,0,0:0:0:0:
186,351,356786,6,0,B|226:386|284:384|321:351,1,125,2|0,1:2|0:0,0:0:0:0:
154,221,357129,2,0,B|109:194|54:205|22:242,1,125,8|0,0:2|0:0,0:0:0:0:
36,228,357386,1,0,0:0:0:0:
36,228,357472,1,0,0:0:0:0:
144,26,357643,1,0,1:0:0:0:
244,266,357815,1,8,0:2:0:0:
370,125,357986,1,0,0:0:0:0:
370,125,358072,1,0,0:0:0:0:
370,125,358157,6,0,B|409:97|460:101|495:128,1,125,0|0,0:0|1:0,0:0:0:0:
307,211,358500,2,0,B|267:187|251:139|266:95|298:70,1,125,8|0,0:2|0:0,0:0:0:0:
422,237,358843,2,0,B|423:280|395:317|354:330|318:321,1,125,0|0,0:0|1:0,0:0:0:0:
131,246,359186,1,8,0:2:0:0:
85,235,359271,1,0,0:0:0:0:
41,248,359357,1,0,0:0:0:0:
9,281,359443,1,0,0:0:0:0:
0,326,359528,5,2,1:2:0:0:
42,151,359700,1,0,0:0:0:0:
189,304,359872,1,8,0:2:0:0:
140,152,360043,1,0,0:0:0:0:
140,152,360129,1,0,0:0:0:0:
140,152,360215,1,0,0:0:0:0:
87,321,360386,1,0,1:0:0:0:
281,173,360557,1,8,0:2:0:0:
475,246,360729,2,0,B|506:270|511:313|488:343,1,62.5,0|0,0:0|0:0,0:0:0:0:
422,314,360900,6,0,B|412:357|375:386|331:388|298:370,1,125,0|0,0:0|1:0,0:0:0:0:
185,217,361243,1,8,0:2:0:0:
341,299,361415,1,0,0:0:0:0:
385,108,361586,1,0,0:0:0:0:
260,281,361757,1,0,1:0:0:0:
451,171,361929,1,8,0:2:0:0:
479,134,362014,1,0,0:0:0:0:
484,89,362100,1,0,0:0:0:0:
463,47,362186,1,0,0:0:0:0:
423,24,362272,6,0,B|379:-5|320:11|295:57,1,125,2|2,1:2|0:2,0:0:0:0:
236,241,362615,2,0,B|266:203|267:153|246:115,1,125,10|0,0:2|0:0,0:0:0:0:
166,301,362957,2,0,B|191:337|236:349|276:333|298:303,1,125,2|2,0:2|1:2,0:0:0:0:
451,171,363300,2,0,B|408:174|373:205|363:246|374:282,1,125,10|0,0:2|0:0,0:0:0:0:
337,71,363643,6,0,B|307:25|246:14|203:44,1,125,2|2,0:2|1:2,0:0:0:0:
79,221,363986,2,0,B|120:237|166:220|190:183|190:144,1,125,10|0,0:2|0:0,0:0:0:0:
245,351,364329,2,0,B|275:382|320:389|358:369|377:337,1,125,2|2,0:0|1:2,0:0:0:0:
451,171,364672,2,0,B|445:144|422:125|394:123|373:134,1,62.5,10|0,0:2|0:0,0:0:0:0:
364,223,364843,2,0,B|331:215|298:235|289:269|300:297,1,62.5,0|0,0:0|0:0,0:0:0:0:
294,134,365015,6,0,B|252:108|239:55|262:14,1,125,2|0,1:2|0:0,0:0:0:0:
451,171,365357,2,0,B|478:215|467:270|432:302,1,125,8|0,0:2|0:0,0:0:0:0:
444,288,365615,1,0,0:0:0:0:
444,288,365700,1,0,0:0:0:0:
276,268,365872,1,0,1:0:0:0:
451,171,366043,1,8,0:2:0:0:
329,338,366215,1,0,0:0:0:0:
329,338,366300,1,0,0:0:0:0:
329,338,366386,6,0,B|286:366|231:353|203:313,1,125,0|0,0:0|1:0,0:0:0:0:
162,133,366729,1,8,0:2:0:0:
279,264,366900,1,0,0:0:0:0:
150,381,367072,1,0,0:0:0:0:
218,203,367243,1,0,1:0:0:0:
408,188,367415,1,8,0:2:0:0:
451,171,367500,1,0,0:0:0:0:
482,137,367586,1,0,0:0:0:0:
496,92,367672,1,0,0:0:0:0:
488,46,367757,5,2,1:2:0:0:
328,70,367929,1,0,0:0:0:0:
460,255,368100,1,8,0:2:0:0:
335,327,368272,1,0,0:0:0:0:
335,327,368357,1,0,0:0:0:0:
335,327,368443,2,0,B|303:354|258:355|223:334|205:303,1,125,0|0,0:0|1:0,0:0:0:0:
137,140,368786,2,0,B|181:115|236:132|261:173,1,125,8|0,0:2|0:0,0:0:0:0:
250,160,369043,1,0,0:0:0:0:
250,160,369129,5,0,0:0:0:0:
174,37,369300,1,0,1:0:0:0:
184,232,369472,2,0,B|213:266|260:273|299:253|318:220,1,125,8|0,0:2|0:0,0:0:0:0:
464,99,369815,1,0,0:0:0:0:
408,279,369986,1,0,1:0:0:0:
250,160,370157,1,8,0:2:0:0:
232,117,370242,1,0,0:0:0:0:
237,71,370328,1,0,0:0:0:0:
265,34,370414,1,0,0:0:0:0:
308,16,370499,5,0,1:0:0:0:
174,37,370672,1,0,0:0:0:0:
330,109,370843,1,8,0:2:0:0:
301,263,371015,1,0,0:0:0:0:
301,263,371100,1,0,0:0:0:0:
301,263,371186,2,0,B|256:291|198:276|172:232,1,125,0|0,0:0|1:0,0:0:0:0:
384,190,371529,2,0,B|434:177|483:209|492:258,1,125,8|0,0:2|0:0,0:0:0:0:
486,240,371786,1,0,0:0:0:0:
486,240,371872,5,0,0:0:0:0:
463,47,372043,1,0,1:0:0:0:
239,123,372215,1,8,0:2:0:0:
426,116,372386,1,0,0:0:0:0:
206,50,372557,1,0,0:0:0:0:
271,194,372729,1,0,1:0:0:0:
115,355,372900,2,0,B|101:372|78:378|58:373,1,62.5,10|0,0:2|0:0,0:0:0:0:
52,264,373072,2,0,B|30:265|10:254|-1:236,1,62.5,0|0,0:1|0:0,0:0:0:0:
64,149,373243,6,0,B|48:104|65:55|104:28|145:24,1,125,6|2,1:2|0:2,0:0:0:0:
193,232,373586,2,0,B|212:269|252:288|293:283|321:260,1,125,10|0,0:2|0:0,0:0:0:0:
299,272,373843,1,0,0:0:0:0:
299,272,373929,1,2,0:0:0:0:
115,355,374100,1,2,1:2:0:0:
271,194,374272,2,0,B|297:154|295:104|272:67,1,125,10|0,0:2|0:0,0:0:0:0:
276,74,374529,1,0,0:0:0:0:
276,74,374615,5,2,0:0:0:0:
447,239,374786,1,2,1:2:0:0:
172,125,374957,1,10,0:2:0:0:
418,3,375129,1,2,0:0:0:0:
193,232,375300,2,0,B|174:272|186:318|219:346|257:351,1,125,2|2,0:0|1:2,0:0:0:0:
357,178,375643,1,10,0:2:0:0:
346,132,375728,1,0,0:0:0:0:
318,95,375814,1,0,0:0:0:0:
276,74,375900,1,0,0:0:0:0:
230,73,375986,6,0,B|181:103|119:91|85:49,1,125,2|0,1:2|0:0,0:0:0:0:
265,261,376329,2,0,B|290:300|285:349|259:382,1,125,8|0,0:2|0:0,0:0:0:0:
261,378,376586,1,0,0:0:0:0:
261,378,376672,1,0,0:0:0:0:
396,253,376843,1,0,1:0:0:0:
147,183,377015,1,8,0:2:0:0:
357,178,377186,1,0,0:0:0:0:
357,178,377272,1,0,0:0:0:0:
357,178,377357,6,0,B|412:178|456:134|459:82,1,125,0|0,0:0|1:0,0:0:0:0:
299,20,377700,1,8,0:2:0:0:
483,206,377872,1,0,0:0:0:0:
265,261,378043,1,0,0:0:0:0:
367,95,378215,1,0,1:0:0:0:
339,352,378386,1,8,0:2:0:0:
297,373,378471,1,0,0:0:0:0:
250,380,378557,1,0,0:0:0:0:
207,358,378643,1,0,0:0:0:0:
174,326,378729,6,0,B|138:280|150:214|196:181,1,125,2|0,1:2|0:0,0:0:0:0:
395,102,379072,2,0,B|413:152|384:205|336:220,1,125,8|0,0:2|0:0,0:0:0:0:
355,210,379329,1,0,0:0:0:0:
355,210,379415,1,0,0:0:0:0:
510,180,379586,1,0,1:0:0:0:
313,43,379757,1,8,0:2:0:0:
266,226,379929,1,0,0:0:0:0:
266,226,380015,1,0,0:0:0:0:
266,226,380100,6,0,B|267:268|296:303|336:314|371:304,1,125,0|0,0:0|1:0,0:0:0:0:
303,139,380443,2,0,B|260:120|212:133|182:168|175:208,1,125,8|0,0:2|0:0,0:0:0:0:
313,43,380786,1,0,0:0:0:0:
122,27,380957,1,0,1:0:0:0:
184,254,381129,1,8,0:2:0:0:
182,300,381214,1,0,0:0:0:0:
159,340,381300,1,0,0:0:0:0:
119,364,381386,1,0,0:0:0:0:
73,366,381471,5,2,1:2:0:0:
264,318,381643,1,0,0:0:0:0:
85,154,381815,1,8,0:2:0:0:
280,221,381986,1,0,0:0:0:0:
280,221,382072,1,0,0:0:0:0:
280,221,382157,2,0,B|332:246|394:218|411:164,1,125,0|0,0:0|1:0,0:0:0:0:
128,73,382500,2,0,B|85:55|38:69|12:102,1,125,8|0,0:2|0:0,0:0:0:0:
85,154,382757,1,0,0:0:0:0:
85,154,382843,6,0,B|131:178|186:159|209:115,1,125,0|0,0:0|1:0,0:0:0:0:
294,344,383186,2,0,B|335:383|400:378|435:335,1,125,8|0,0:2|0:0,0:0:0:0:
508,207,383529,1,0,0:0:0:0:
297,144,383700,1,0,1:0:0:0:
134,339,383872,2,0,B|101:363|55:354|33:320,1,62.5,8|0,0:2|0:0,0:0:0:0:
58,262,384043,2,0,B|25:270|-8:245|-9:207|10:184,1,62.5,0|0,0:0|0:0,0:0:0:0:
14,129,384215,6,0,B|-9:84|8:30|49:5,1,125,2|2,1:2|0:2,0:0:0:0:
236,60,384557,2,0,B|257:99|248:146|218:174,1,125,10|0,0:2|0:0,0:0:0:0:
216,175,384815,1,0,0:0:0:0:
216,175,384900,1,2,0:0:0:0:
425,185,385072,1,2,1:2:0:0:
170,268,385243,2,0,B|129:296|117:349|137:391,1,125,10|0,0:2|0:0,0:0:0:0:
131,378,385500,1,0,0:0:0:0:
131,378,385586,5,2,0:0:0:0:
14,129,385757,1,2,1:2:0:0:
295,235,385929,2,0,B|354:247|409:205|414:146,1,125,10|0,0:2|0:0,0:0:0:0:
352,359,386272,1,2,0:0:0:0:
313,121,386443,1,2,1:2:0:0:
200,330,386615,1,10,0:2:0:0:
157,349,386700,1,0,0:0:0:0:
111,346,386786,1,0,0:0:0:0:
72,321,386872,1,0,0:0:0:0:
49,281,386957,6,0,B|28:239|40:189|77:159|118:155,1,125,2|0,1:2|0:0,0:0:0:0:
378,256,387300,2,0,B|368:300|329:328|284:327|252:304,1,125,8|0,0:2|0:0,0:0:0:0:
283,317,387557,1,0,0:0:0:0:
283,317,387643,1,0,0:0:0:0:
465,384,387815,1,0,1:0:0:0:
295,235,387986,1,8,0:2:0:0:
459,194,388157,1,0,0:0:0:0:
468,164,388243,1,0,0:0:0:0:
477,134,388329,6,0,B|501:91|489:39|455:9,1,125,0|0,0:0|1:0,0:0:0:0:
281,118,388672,2,0,B|257:161|269:213|303:243,1,125,8|0,0:2|0:0,0:0:0:0:
162,102,389015,1,0,0:0:0:0:
401,29,389186,1,0,1:0:0:0:
386,280,389357,1,8,0:2:0:0:
354,313,389442,1,0,0:0:0:0:
310,330,389528,1,0,0:0:0:0:
264,326,389614,1,0,0:0:0:0:
223,303,389700,6,0,B|179:272|122:278|85:311,1,125,2|0,1:2|0:0,0:0:0:0:
43,94,390043,2,0,B|87:125|144:119|181:86,1,125,8|0,0:2|0:0,0:0:0:0:
162,102,390300,1,0,0:0:0:0:
162,102,390386,1,0,0:0:0:0:
346,4,390557,1,0,1:0:0:0:
300,248,390729,1,8,0:2:0:0:
136,200,390900,1,0,0:0:0:0:
136,200,390986,1,0,0:0:0:0:
136,200,391072,5,0,0:0:0:0:
318,164,391243,1,0,1:0:0:0:
124,358,391415,1,8,0:2:0:0:
282,329,391586,1,0,0:0:0:0:
47,259,391757,1,0,0:0:0:0:
272,98,391929,1,0,1:0:0:0:
365,314,392100,1,0,0:0:0:0:
398,345,392185,1,0,0:0:0:0:
444,352,392271,1,0,0:0:0:0:
485,332,392357,1,0,0:0:0:0:
508,292,392442,5,0,1:0:0:0:
503,37,392615,1,0,0:0:0:0:
234,266,392786,1,8,0:2:0:0:
433,274,392957,1,0,0:0:0:0:
166,159,393129,5,0,0:0:0:0:
478,112,393300,1,0,1:0:0:0:
104,274,393472,1,8,0:2:0:0:
362,120,393643,1,0,0:0:0:0:
362,120,393729,1,0,0:0:0:0:
362,120,393815,6,0,B|392:81|384:27|349:-3,1,125,0|0,0:0|1:0,0:0:0:0:
372,320,394157,2,0,B|403:359|459:365|500:333|511:291,1,125,8|0,0:2|0:0,0:0:0:0:
166,159,394500,2,0,B|116:153|73:192|72:242,1,125,0|0,0:0|1:0,0:0:0:0:
357,189,394843,1,0,0:0:0:0:
362,120,394928,1,0,0:0:0:0:
334,58,395014,1,0,0:0:0:0:
280,16,395100,1,0,0:0:0:0:
213,6,395186,21,4,1:2:0:0:
166,159,395357,1,0,0:0:0:0:
59,0,395529,1,8,0:2:0:0:
187,84,395700,1,0,0:0:0:0:
187,84,395786,1,0,0:0:0:0:
187,84,395872,1,0,0:0:0:0:
334,58,396043,1,0,1:0:0:0:
384,237,396215,1,8,0:2:0:0:
248,308,396386,1,0,0:0:0:0:
248,308,396472,1,0,0:0:0:0:
248,308,396557,6,0,B|204:334|152:327|116:298,1,100,0|0,0:0|1:0,0:0:0:0:
334,380,396900,2,0,B|372:361|415:363|450:380,1,100,8|0,0:2|0:0,0:0:0:0:
319,273,397243,1,0,0:0:0:0:
454,194,397415,1,0,1:0:0:0:
261,196,397586,1,8,0:2:0:0:
233,191,397671,1,0,0:0:0:0:
208,178,397757,1,0,0:0:0:0:
188,159,397843,1,0,0:0:0:0:
175,134,397929,6,0,B|191:178|182:224|156:258,1,100,2|0,1:2|0:0,0:0:0:0:
29,109,398272,2,0,L|46:-13,1,100,8|0,0:2|0:0,0:0:0:0:
43,10,398529,1,0,0:0:0:0:
43,10,398615,1,0,0:0:0:0:
170,58,398786,1,0,1:0:0:0:
360,2,398957,1,8,0:2:0:0:
337,154,399129,1,0,0:0:0:0:
337,154,399215,1,0,0:0:0:0:
337,154,399300,6,0,B|349:202|394:232|440:230,1,100,0|0,0:0|1:0,0:0:0:0:
203,228,399643,2,0,B|156:217|110:244|94:286,1,100,8|0,0:2|0:0,0:0:0:0:
223,117,399986,2,0,B|253:83|253:33|227:0,1,100,0|0,0:0|1:0,0:0:0:0:
64,118,400329,1,8,0:2:0:0:
57,145,400414,1,0,0:0:0:0:
61,172,400500,1,0,0:0:0:0:
76,196,400586,1,0,0:0:0:0:
98,214,400671,5,2,1:2:0:0:
223,117,400843,1,0,0:0:0:0:
187,306,401015,1,8,0:2:0:0:
319,367,401186,1,0,0:0:0:0:
319,367,401272,1,0,0:0:0:0:
319,367,401357,2,0,B|360:391|410:383|441:353,1,100,0|0,0:0|1:0,0:0:0:0:
505,193,401700,1,8,0:2:0:0:
373,287,401872,1,0,0:0:0:0:
373,287,401957,1,0,0:0:0:0:
373,287,402043,6,0,B|326:306|276:297|239:269,1,100,0|0,0:0|1:0,0:0:0:0:
94,175,402386,1,8,0:2:0:0:
134,305,402557,1,0,0:0:0:0:
206,147,402729,1,0,0:0:0:0:
66,62,402900,1,0,1:0:0:0:
31,248,403072,1,8,0:2:0:0:
29,275,403157,1,0,0:0:0:0:
36,303,403243,1,0,0:0:0:0:
49,327,403329,1,0,0:0:0:0:
70,347,403415,6,0,B|107:372|153:371|187:349,1,100,2|0,1:2|0:0,0:0:0:0:
310,243,403757,2,0,B|272:209|274:148|315:117,1,100,8|0,0:2|0:0,0:0:0:0:
290,152,404015,1,0,0:0:0:0:
290,152,404100,1,0,0:0:0:0:
427,168,404272,1,0,1:0:0:0:
296,20,404443,1,8,0:2:0:0:
194,130,404615,1,0,0:0:0:0:
194,130,404700,1,0,0:0:0:0:
194,130,404786,6,0,B|154:150|109:145|74:123,1,100,0|0,0:0|1:0,0:0:0:0:
167,313,405129,1,8,0:2:0:0:
91,219,405300,1,0,0:0:0:0:
242,205,405472,1,0,0:0:0:0:
221,370,405643,1,0,1:0:0:0:
381,261,405815,1,8,0:2:0:0:
407,251,405900,1,0,0:0:0:0:
435,251,405986,1,0,0:0:0:0:
461,261,406072,1,0,0:0:0:0:
483,279,406157,6,0,L|494:161,1,100,2|0,1:2|0:0,0:0:0:0:
349,52,406500,1,8,0:2:0:0:
510,16,406672,1,0,0:0:0:0:
510,16,406757,1,0,0:0:0:0:
510,16,406843,1,0,0:0:0:0:
423,117,407015,1,0,1:0:0:0:
242,48,407186,1,8,0:2:0:0:
154,182,407357,1,0,0:0:0:0:
154,182,407443,1,0,0:0:0:0:
154,182,407529,6,0,B|114:200|69:194|36:169,1,100,0|0,0:0|1:0,0:0:0:0:
239,134,407872,2,0,B|283:117|330:124|367:147,1,100,8|0,0:2|0:0,0:0:0:0:
376,269,408215,1,0,0:0:0:0:
423,117,408386,1,0,1:0:0:0:
445,320,408557,1,8,0:2:0:0:
424,339,408642,1,0,0:0:0:0:
399,351,408728,1,0,0:0:0:0:
371,354,408814,1,0,0:0:0:0:
343,350,408900,6,0,B|299:329|249:340|216:370,1,100,2|0,1:2|0:0,0:0:0:0:
64,384,409243,1,8,0:2:0:0:
158,268,409415,1,0,0:0:0:0:
158,268,409500,1,0,0:0:0:0:
158,268,409586,1,0,0:0:0:0:
40,213,409757,1,0,1:0:0:0:
129,29,409929,1,8,0:2:0:0:
192,153,410100,1,0,0:0:0:0:
192,153,410186,1,0,0:0:0:0:
192,153,410272,6,0,B|231:176|279:169|309:139,1,100,0|0,0:0|1:0,0:0:0:0:
409,7,410615,1,8,0:2:0:0:
278,49,410786,1,0,0:0:0:0:
375,194,410957,1,0,0:0:0:0:
505,122,411129,1,0,1:0:0:0:
454,268,411300,1,8,0:2:0:0:
429,282,411385,1,0,0:0:0:0:
405,297,411471,1,0,0:0:0:0:
381,311,411557,1,0,0:0:0:0:
357,326,411643,6,0,B|313:353|258:343|226:307,1,100,2|0,1:2|0:0,0:0:0:0:
92,193,411986,1,8,0:2:0:0:
112,340,412157,1,0,0:0:0:0:
112,340,412243,1,0,0:0:0:0:
112,340,412329,1,0,0:0:0:0:
0,245,412500,1,0,1:0:0:0:
69,56,412672,1,8,0:2:0:0:
186,138,412843,1,0,0:0:0:0:
186,138,412929,1,0,0:0:0:0:
186,138,413015,5,0,0:0:0:0:
233,9,413186,1,0,1:2:0:0:
392,98,413357,2,0,B|433:113|475:109|510:90,1,100,8|0,0:2|0:0,0:0:0:0:
400,202,413700,2,0,B|378:244|387:293|416:325,1,100,0|0,0:0|1:0,0:0:0:0:
295,150,414043,1,8,0:2:0:0:
272,133,414128,1,0,0:0:0:0:
245,124,414214,1,0,0:0:0:0:
217,124,414300,1,0,0:0:0:0:
190,132,414385,5,2,1:2:0:0:
225,266,414557,1,0,0:0:0:0:
102,87,414729,1,8,0:2:0:0:
109,224,414900,1,0,0:0:0:0:
109,224,414986,1,0,0:0:0:0:
109,224,415072,2,0,B|71:247|25:242|-6:217,1,100,0|0,0:0|1:0,0:0:0:0:
225,266,415415,2,0,L|342:250,1,100,8|0,0:2|0:0,0:0:0:0:
324,252,415672,1,0,0:0:0:0:
324,252,415757,5,0,0:0:0:0:
217,161,415929,1,0,1:0:0:0:
236,362,416100,1,8,0:0:0:0:
141,297,416272,1,0,0:0:0:0:
324,252,416443,1,0,0:0:0:0:
408,384,416615,1,0,1:0:0:0:
459,176,416786,1,8,0:2:0:0:
466,134,416871,1,0,0:0:0:0:
474,93,416957,1,0,0:0:0:0:
482,51,417043,1,0,0:0:0:0:
489,10,417128,5,6,1:2:0:0:
